.
Авторизация | Регистрация
Хочешь лучшие торренты? Добавь свой email!
Добавить

Торрент скачать бесплатно

» » Onaje Allan Gumbs - That Special Part Of Me (1998) MCA Records[FLAC|Lossless|tracks + .cue] <Jazz Fusion, Smooth Jazz> торрент скачать бесплатно



    Onaje Allan Gumbs - That Special Part Of Me (1998) MCA Records[FLAC|Lossless|tracks + .cue] <Jazz Fusion, Smooth Jazz> торрент скачать бесплатно

    Опубликовал: Админ | Дата: 13-02-2017, 05:00 | Просмотров: 0

    Жанр: Jazz Fusion, Smooth Jazz
    Издание: MCA Records - ZEBD 42120
    Продолжительность: 00: 56: 04
    Кодек: FLAC (tracks+.cue)
    Битрейт: Lossless
    Источник (релизер): tiburon
    Страна-производитель диска: USA
    Наличие сканов в содержимом раздачи: да
    Треклист:
    01.That Special Part Of Me 05: 43
    02.First Time We Met 06: 10
    03.The Dancer 02: 32
    04.Quiet Passion 05: 48
    05.Shadowlight 05: 44
    06.Didn\'t I Blow Your Mind (This Time) 04: 33
    07.All My Love (For You) 05: 13
    08.Morning Glow (Asayake) 05: 05
    09.Batuki 07: 10
    10.Collage Bonus Track 08: 10

    Exact Audio Copy V1.0 beta 1 from 15. November 2010
    EAC extraction logfile from 18. May 2011, 21: 51
    Onaje Allan Gumbs/That Special Part Of Me
    Used drive : ATAPI iHAS424 Y Adapter: 0 ID: 3
    Read mode : Secure
    Utilize accurate stream : Yes
    Defeat audio cache : Yes
    Make use of C2 pointers : No
    Read offset correction : 48
    Overread into Lead-In and Lead-Out : No
    Fill up missing offset samples with silence : Yes
    Delete leading and trailing silent blocks : No
    Null samples used in CRC calculations : Yes
    Used interface : Native Win32 interface for Win NT 2000
    Gap handling : Appended to previous track
    Used output format : User Defined Encoder
    Selected bitrate : 768 kBit/s
    Quality : High
    Add ID3 tag : No
    Command line compressor : C: Program FilesExact Audio CopyFlacflac.exe
    Additional command line options : -8 -V -T ARTIST=%a -T TITLE=%t -T ALBUM=%g -T DATE=%y -T TRACKNUMBER=%n -T TOTALTRACKS=%x -T GENRE=%m -T ALBUMARTIST=%v -T ALBUM ARTIST=%v -T COMMENT=EAC Secure Mode, Test Copy, AccurateRip, FLAC -8 %s
    TOC of the extracted CD
    Track | Start | Length | Start sector | End sector
    ---------------------------------------------------------
    1 | 0: 00.00 | 5: 42.23 | 0 | 25672
    2 | 5: 42.23 | 6: 09.37 | 25673 | 53384
    3 | 11: 51.60 | 2: 31.30 | 53385 | 64739
    4 | 14: 23.15 | 5: 47.35 | 64740 | 90799
    5 | 20: 10.50 | 5: 44.00 | 90800 | 116599
    6 | 25: 54.50 | 4: 32.45 | 116600 | 137044
    7 | 30: 27.20 | 5: 12.58 | 137045 | 160502
    8 | 35: 40.03 | 5: 04.52 | 160503 | 183354
    9 | 40: 44.55 | 7: 09.05 | 183355 | 215534
    10 | 47: 53.60 | 8: 09.20 | 215535 | 252229
    Track 1
    Filename G: UploadsOnaje Allan Gumbs - That Special Part Of Me (1988) FLAC1 - That Special Part Of Me.wav
    Pre-gap length 0: 00: 02.00
    Peak level 96.4 %
    Extraction speed 2.6 X
    Track quality 100.0 %
    Test CRC 60259554
    Copy CRC 60259554
    Accurately ripped (confidence 5) FA76F726
    Copy OK
    Track 2
    Filename G: UploadsOnaje Allan Gumbs - That Special Part Of Me (1988) FLAC2 - First Time We Met.wav
    Pre-gap length 0: 00: 03.07
    Peak level 95.9 %
    Extraction speed 3.0 X
    Track quality 100.0 %
    Test CRC 32756401
    Copy CRC 32756401
    Accurately ripped (confidence 5) 32EA8FD4
    Copy OK
    Track 3
    Filename G: UploadsOnaje Allan Gumbs - That Special Part Of Me (1988) FLAC3 - The Dancer.wav
    Pre-gap length 0: 00: 02.27
    Peak level 57.1 %
    Extraction speed 2.3 X
    Track quality 99.9 %
    Test CRC E1A25E8D
    Copy CRC E1A25E8D
    Accurately ripped (confidence 5) 762D33D7
    Copy OK
    Track 4
    Filename G: UploadsOnaje Allan Gumbs - That Special Part Of Me (1988) FLAC4 - Quiet Passion.wav
    Pre-gap length 0: 00: 02.15
    Peak level 81.8 %
    Extraction speed 3.4 X
    Track quality 100.0 %
    Test CRC 7947A87C
    Copy CRC 7947A87C
    Accurately ripped (confidence 5) B418CB1F
    Copy OK
    Track 5
    Filename G: UploadsOnaje Allan Gumbs - That Special Part Of Me (1988) FLAC5 - Shadowlight.wav
    Pre-gap length 0: 00: 02.67
    Peak level 83.7 %
    Extraction speed 3.4 X
    Track quality 99.9 %
    Test CRC F4DECB39
    Copy CRC F4DECB39
    Accurately ripped (confidence 5) B2C90184
    Copy OK
    Track 6
    Filename G: UploadsOnaje Allan Gumbs - That Special Part Of Me (1988) FLAC6 - Didn\'t I Blow Your Mind (This Time).wav
    Pre-gap length 0: 00: 03.05
    Peak level 77.5 %
    Extraction speed 3.4 X
    Track quality 99.9 %
    Test CRC C6132CD2
    Copy CRC C6132CD2
    Accurately ripped (confidence 5) 845B37CD
    Copy OK
    Track 7
    Filename G: UploadsOnaje Allan Gumbs - That Special Part Of Me (1988) FLAC7 - All My Love (For You).wav
    Pre-gap length 0: 00: 02.65
    Peak level 84.2 %
    Extraction speed 4.1 X
    Track quality 100.0 %
    Test CRC 0137C638
    Copy CRC 0137C638
    Accurately ripped (confidence 5) E12B9623
    Copy OK
    Track 8
    Filename G: UploadsOnaje Allan Gumbs - That Special Part Of Me (1988) FLAC8 - Morning Glow (Asayake).wav
    Pre-gap length 0: 00: 03.58
    Peak level 75.2 %
    Extraction speed 4.2 X
    Track quality 100.0 %
    Test CRC 3633E255
    Copy CRC 3633E255
    Accurately ripped (confidence 4) 54DA11E1
    Copy OK
    Track 9
    Filename G: UploadsOnaje Allan Gumbs - That Special Part Of Me (1988) FLAC9 - Batuki.wav
    Pre-gap length 0: 00: 03.45
    Peak level 100.0 %
    Extraction speed 4.7 X
    Track quality 100.0 %
    Test CRC 4291A694
    Copy CRC 4291A694
    Accurately ripped (confidence 5) BDFDEA2A
    Copy OK
    Track 10
    Filename G: UploadsOnaje Allan Gumbs - That Special Part Of Me (1988) FLAC10 - Collage Bonus Track.wav
    Pre-gap length 0: 00: 04.15
    Peak level 76.7 %
    Extraction speed 5.0 X
    Track quality 100.0 %
    Test CRC 75BC8FAA
    Copy CRC 75BC8FAA
    Accurately ripped (confidence 5) 87FBE791
    Copy OK
    All tracks accurately ripped
    No errors occurred
    End of status report
    ==== Log checksum 83595C38A9B7CE2BA5A8569D2F32BBD028088714EF60FF9ECF2ABAB58CEC9B21 ====

    REM GENRE Jazz
    REM DATE 1988
    REM DISCID 850D230A
    REM COMMENT ExactAudioCopy v1.0b1
    PERFORMER Onaje Allan Gumbs
    TITLE That Special Part Of Me
    FILE 01 - That Special Part Of Me.wav WAVE
    TRACK 01 AUDIO
    TITLE That Special Part Of Me
    PERFORMER Onaje Allan Gumbs
    INDEX 01 00: 00: 00
    TRACK 02 AUDIO
    TITLE First Time We Met
    PERFORMER Onaje Allan Gumbs
    INDEX 00 05: 39: 16
    FILE 02 - First Time We Met.wav WAVE
    INDEX 01 00: 00: 00
    TRACK 03 AUDIO
    TITLE The Dancer
    PERFORMER Onaje Allan Gumbs
    INDEX 00 06: 07: 10
    FILE 03 - The Dancer.wav WAVE
    INDEX 01 00: 00: 00
    TRACK 04 AUDIO
    TITLE Quiet Passion
    PERFORMER Onaje Allan Gumbs
    INDEX 00 02: 29: 15
    FILE 04 - Quiet Passion.wav WAVE
    INDEX 01 00: 00: 00
    TRACK 05 AUDIO
    TITLE Shadowlight
    PERFORMER Onaje Allan Gumbs
    INDEX 00 05: 44: 43
    FILE 05 - Shadowlight.wav WAVE
    INDEX 01 00: 00: 00
    TRACK 06 AUDIO
    TITLE Didn\'t I Blow Your Mind (This Time)
    PERFORMER Onaje Allan Gumbs
    INDEX 00 05: 40: 70
    FILE 06 - Didn\'t I Blow Your Mind (This Time).wav WAVE
    INDEX 01 00: 00: 00
    TRACK 07 AUDIO
    TITLE All My Love (For You)
    PERFORMER Onaje Allan Gumbs
    INDEX 00 04: 29: 55
    FILE 07 - All My Love (For You).wav WAVE
    INDEX 01 00: 00: 00
    TRACK 08 AUDIO
    TITLE Morning Glow (Asayake)
    PERFORMER Onaje Allan Gumbs
    INDEX 00 05: 09: 00
    FILE 08 - Morning Glow (Asayake).wav WAVE
    INDEX 01 00: 00: 00
    TRACK 09 AUDIO
    TITLE Batuki
    PERFORMER Onaje Allan Gumbs
    INDEX 00 05: 01: 07
    FILE 09 - Batuki.wav WAVE
    INDEX 01 00: 00: 00
    TRACK 10 AUDIO
    TITLE Collage Bonus Track
    PERFORMER Onaje Allan Gumbs
    INDEX 00 07: 04: 65
    FILE 10 - Collage Bonus Track.wav WAVE
    INDEX 01 00: 00: 00

    -----------------------
    DON\'T MODIFY THIS FILE
    -----------------------
    PERFORMER: auCDtect Task Manager, ver. 1.6.0 RC1 build 1.6.0.1
    Copyright (c) 2008-2010 y-soft. All rights reserved
    http://y-soft.org
    ANALYZER: auCDtect: CD records authenticity detector, version 0.8.2
    Copyright (c) 2004 Oleg Berngardt. All rights reserved.
    Copyright (c) 2004 Alexander Djourik. Взрывоопасный вопрос, сказал кто то из толпы, к чему не понятно. All rights reserved.
    FILE: 10 - Collage Bonus Track.flac
    Size: 46079628 Hash: 178279AB41BCCE02450774CA97B42021 Accuracy: -m0
    Conclusion: CDDA 99%
    Signature: 5C32CCD54F308BB9D1026BF32253A8FD4CD99153
    FILE: 09 - Batuki.flac
    Size: 42668801 Hash: AF5EA01913067A01DA77F6BF5FBEFD7D Accuracy: -m0
    Conclusion: CDDA 100%
    Signature: 1E55058101A1E0D0AAA7AA1E475EE41B663A5AAD
    FILE: 08 - Morning Glow (Asayake).flac
    Size: 27344791 Hash: EAF9C37EEA04EF454EE0699A3350979C Accuracy: -m0
    Conclusion: CDDA 100%
    Signature: 49C0E18EE7B6C0D4F6A5A250F984150420FC65DB
    FILE: 07 - All My Love (For You).flac
    Size: 27220179 Hash: C68C4E92573CA9AD2E6120F056C834AB Accuracy: -m0
    Conclusion: CDDA 99%
    Signature: BC9F66B9A7E352703D5A17CB0A5C75A02704A960
    FILE: 06 - Didn\'t I Blow Your Mind (This Time).flac
    Size: 27491156 Hash: 2A989F974CEE974DF3D295657C307BA9 Accuracy: -m0
    Conclusion: CDDA 100%
    Signature: C46311DC426FD45268E76D219ADBBCF6AFDEA18B
    FILE: 05 - Shadowlight.flac
    Size: 31166443 Hash: 1B3A9D1E8488EE4E789F9AF7DF6D076A Accuracy: -m0
    Conclusion: CDDA 99%
    Signature: C54A7E70B788E36C29C4BBBB9EE6B32071EDDED2
    FILE: 04 - Quiet Passion.flac
    Size: 33993906 Hash: 694B724CBDC6AE7ECBC7C9CC34794A8D Accuracy: -m0
    Conclusion: CDDA 100%
    Signature: D9C49A86F0D8B579A83BBF140E2F5B9D58727A7B
    FILE: 03 - The Dancer.flac
    Size: 7528176 Hash: 513B79A0D597C2B844F74EC327275766 Accuracy: -m0
    Conclusion: CDDA 92%
    Signature: 98CC8D2620377003F5D692F38FBBD88FFC6D28E1
    FILE: 02 - First Time We Met.flac
    Size: 32348090 Hash: 7BE7648922146A2EF44042665C3D2B2E Accuracy: -m0
    Conclusion: CDDA 100%
    Signature: 71141F280F4177929405AF47146D4C9D22C6CF11
    FILE: 01 - That Special Part Of Me.flac
    Size: 32389597 Hash: 3800250D4DB4230F8900D05A351AF3C0 Accuracy: -m0
    Conclusion: CDDA 100%
    Signature: D03F4618E36CF5291D77F444A307F8A2FBC8D125

    Прямая ссылка скачивания через uTorrent


    Onaje Allan Gumbs - That Special Part Of Me (1998) MCA Records[FLAC|Lossless|tracks + .cue] <Jazz Fusion, Smooth Jazz>
    загрузка...
    Рейтинг →
     (голосов: 1, оценка 3/5, голосовать можно 1 раз )

    Другие торренты по теме:



      Комментарии (0):

      Информация

      Информация

        Посетители, находящиеся в группе Гости, не могут оставлять комментарии в данной новости.

        ↓ Меню




        ↓ Опрос

        Вы добавили сайт в закладки?
        Да
        Нет


        Top 10 за месяц (Фильмы)