.
Авторизация | Регистрация
Хочешь лучшие торренты? Добавь свой email!
Добавить

Торрент скачать бесплатно

» » Трансформеры: Последний рыцарь / Transformers: The Last Knight (2017) WEBRip [H.264 / 1080p] [Трейлер] торрент скачать бесплатно



    Трансформеры: Последний рыцарь / Transformers: The Last Knight (2017) WEBRip [H.264 / 1080p] [Трейлер] торрент скачать бесплатно

    Опубликовал: Админ | Дата: 13-02-2017, 05:00 | Просмотров: 0

    Производство: США
    Жанр: Фантастика, Боевик
    Режиссер: Майкл Бэй

    Актеры
    Марк Уолберг, Энтони Хопкинс, Лора Хэддок, Изабела Монер, Джош Дюамель, Джон Гудмен, Стэнли Туччи, Джон Туртурро, Жан Дюжарден, Кен Ватанабе, Гил Бирмингем, Сантьяго Кабрера, Джон Ди Маджио, Питер Каллен, Митч Пиледжи, Стивен Хоган

    Описание

    После битвы в Гонконге Оптимус Прайм сталкивается с новой угрозой, с которой он не может бороться в одиночку. Таким образом, он должен искать новых союзников, чтобы спасти Землю и Вселенную. В то время как Оптимус покидает Землю, Бамблби, Хаунд, Дрифт, Кроссхейз, Трейлбрекер, Блёр и Диноботы пытаются помешать Гальватрону построить космический мост, чтобы он не смог принести на Землю большую опасность. В то же время люди возобновляют создание Трансформеров, чтобы помочь Автоботам.

    Дата мировой премьеры: 21 июня 2017
    Дата российской премьеры: 22 июня 2017, Централ Партнершип 3D IMAX
    Продолжительность: 00: 00: 53
    Качество видео: WEBRip
    Перевод: Дублированный
    Видео: AVC, 1920x1080 (16: 9), 23.976 fps, 18.0 Mbps (0.340 bit/pixel)
    Аудио: AC-3, 48.0 KHz, 6 ch, 448 Kbps, CBR

    General
    Unique ID : 145099837910627076289895800110729601123 (0x6D293657B4A18841BE8D4B55B02F2063)
    Complete name : E: Transformers_-The-Last-Knight-sbspot_rus_HD.mkv
    Format : Matroska
    Format version : Version 4/Version 2
    File size : 113 MiB
    Duration : 53 s 760 ms
    Overall bit rate : 17.7 Mb/s
    Writing application : Lavf55.37.101
    Writing library : Lavf55.37.101/Lavf55.37.101
    Video
    ID : 1
    Format : AVC
    Format/Info : Advanced Video Codec
    Format profile : Baseline@L4.1
    Format settings, CABAC : No
    Format settings, ReFrames : 1 frame
    Codec ID : V_MPEG4/ISO/AVC
    Duration : 53 s 762 ms
    Bit rate : 16.9 Mb/s
    Nominal bit rate : 18.0 Mb/s
    Width : 1 920 pixels
    Height : 1 080 pixels
    Display aspect ratio : 16: 9
    Frame rate mode : Constant
    Frame rate : 23.976 (24000/1001) FPS
    Color space : YUV
    Chroma subsampling : 4: 2: 0
    Bit depth : 8 bits
    Scan type : Progressive
    Bits/(Pixel*Frame) : 0.340
    Stream size : 108 MiB (95%)
    Writing library : x264 core 119
    Encoding settings : cabac=0/ref=1/deblock=0: 0: 0/analyse=0: 0/me=dia/subme=0/psy=1/psy_rd=1.00: 0.00/mixed_ref=0/me_range=16/chroma_me=1/trellis=0/8x8dct=0/cqm=0/deadzone=21, 11/fast_pskip=1/chroma_qp_offset=0/threads=4/sliced_threads=0/nr=0/decimate=1/interlaced=0/bluray_compat=0/constrained_intra=0/bframes=0/weightp=0/keyint=250/keyint_min=23/scenecut=0/intra_refresh=0/rc=abr/mbtree=0/bitrate=18000/ratetol=1.0/qcomp=0.60/qpmin=0/qpmax=69/qpstep=4/ip_ratio=1.40/aq=0
    Default : Yes
    Forced : No
    Encoded date : UTC 2017-02-05 20: 13: 04
    HANDLER_NAME : VideoHandler
    Audio
    ID : 2
    Format : AC-3
    Format/Info : Audio Coding 3
    Mode extension : CM (complete main)
    Format settings, Endianness : Big
    Codec ID : A_AC3
    Duration : 53 s 760 ms
    Bit rate mode : Constant
    Bit rate : 448 kb/s
    Channel(s) : 6 channels
    Channel positions : Front: L C R, Side: L R, LFE
    Sampling rate : 48.0 kHz
    Frame rate : 31.250 FPS (1536 spf)
    Bit depth : 32 bits
    Compression mode : Lossy
    Delay relative to video : -5 ms
    Stream size : 2.87 MiB (3%)
    Default : Yes
    Forced : No
    Encoded date : UTC 2017-02-05 20: 13: 04
    HANDLER_NAME : SoundHandler


    Скриншоты для ознакомления




    Онлайн видео Трансформеры: Последний рыцарь


    Прямая ссылка скачивания через uTorrent


    Трансформеры: Последний рыцарь/Transformers: The Last Knight (2017) WEBRip [H.264/1080p] [Трейлер]
    загрузка...
    Рейтинг →
     (голосов: 1, оценка 3/5, голосовать можно 1 раз )

    Другие торренты по теме:

  • Трансформеры: Последний рыцарь / Transformers: The Last Knight (2017) HDRip [H.264] [IMAX edition]
  • Трансформеры: Последний рыцарь / Transformers: The Last Knight (2017) HDRip [H.264] [IMAX edition]
  • Трансформеры: Последний рыцарь / Transformers: The Last Knight (2017) BDRemux [H.264 / 1080p] [IMAX edition]
  • Трансформеры: Последний рыцарь / Transformers: The Last Knight (2017) BDRemux [H.264 / 1080p] [EN / EN, Fr, Sp, Po Sub]
  • Трансформеры: Последний рыцарь / Transformers: The Last Knight (2017) Blu-ray [H.264 / 1080p] [IMAX edition] [Custom]
  • Трансформеры: Последний рыцарь / Transformers: The Last Knight (2017) BDRemux [H.264 / 1080p] [IMAX edition]
  • Трансформеры: Последний рыцарь / Transformers: The Last Knight (2017) BDRip [H.264 / 1080p-LQ] [IMAX edition]
  • Трансформеры: Последний рыцарь / Transformers: The Last Knight (2017) BDRip [H.264 / 1080p] [IMAX edition]


    • Комментарии (0):

      Информация

      Информация

        Посетители, находящиеся в группе Гости, не могут оставлять комментарии в данной новости.

        ↓ Меню




        ↓ Опрос

        Вы добавили сайт в закладки?
        Да
        Нет


        Top 10 за месяц (Фильмы)