.
Авторизация | Регистрация
Хочешь лучшие торренты? Добавь свой email!
Добавить

Торрент скачать бесплатно

» » Во всем виноват рай / Tutta colpa del paradiso (1985) DVD5 [Custom] [MVO] торрент скачать бесплатно



    Во всем виноват рай / Tutta colpa del paradiso (1985) DVD5 [Custom] [MVO] торрент скачать бесплатно

    Опубликовал: Админ | Дата: 12-02-2017, 05:01 | Просмотров: 0

    Производство: Италия/C.G. Silver Film, Union P.N
    Жанр: Комедия
    Режиссер: Франческо Нути

    Актеры
    Франческо Нути, Орнелла Мути, Роберто Альпи, Новелло Новелли, Бобби Родс, Сильвия Анникьярико, Алекс Партексано, Марко Вивио, Лаура Бетти

    Описание

    Ромео Казамоника отсидел пять лет за вооруженное ограбление. Выйдя на свободу, он обнаружил, что дома, в котором он жил, уже нет, а бывшая жена сдала их сына Лоренцо в приют. Ромео отправился на поиски своего сына с твердым намерением забрать мальчика с собой...

    Релиз от: maroder1 (NNM-CLUB)
    Продолжительность: 01: 42: 14
    Качество видео: DVD5
    Перевод: Многоголосый закадровый (НТВ)
    Субтитры: Нет
    Дополнительные материалы: Нет
    Видео: MPEG-2, PAL 720x576@1024x576 (16: 9), ~4592 Kbps, 25.00 fps
    Аудио#1: AC3, 2 ch, 192 Kbps | Русский
    Аудио#2: AC3, 2 ch, 192 Kbps | Итальянский
    Title:
    Size: 3.67 Gb ( 3 845 348 KBytes ) - DVD-5
    Enabled regions: 1, 2, 3, 4, 5, 6, 7, 8
    VTS_01 :
    Play Length: 01: 42: 14
    Video: PAL 16: 9 (720x576) VBR, Auto Letterboxed
    Audio:
    Russian (Dolby AC3, 2 ch)
    Italiano (Dolby AC3, 2 ch)
    Код: выделить все

    Общее
    Полное имя : F:[NNMClub.to]_Tutta.colpa.del.paradiso.1985.DVD5_maroder1VIDEO_TSVTS_01_1.VOB
    Формат : MPEG-PS
    Размер файла : 1024 Мбайт
    Продолжительность : 28 м.
    Режим общего битрейта : Переменный
    Общий поток : 5077 Кбит/сек
    Видео
    Идентификатор : 224 (0xE0)
    Формат : MPEG Video
    Версия формата : Version 2
    Профиль формата : Main@Main
    Параметр BVOP формата : Да
    Параметр матрицы формата : Выборочная
    Параметр GOP формата : M=3, N=12
    Продолжительность : 28 м.
    Вид битрейта : Переменный
    Битрейт : 4592 Кбит/сек
    Максимальный битрейт : 6500 Кбит/сек
    Ширина : 720 пикселей
    Высота : 576 пикселей
    Соотношение сторон : 16:9
    Частота кадров : 25, 000 кадров/сек
    Стандарт вещания : PAL
    Цветовое пространство : YUV
    Субдискретизация насыщенности : 4:2:0
    Битовая глубина : 8 бит
    Тип развёртки : Чересстрочная
    Порядок развёртки : Верхнее поле первое
    Метод сжатия : С потерями
    Бит/(Пиксели*Кадры) : 0.443
    Размер потока : 926 Мбайт (90%)
    Аудио #1
    Идентификатор : 189 (0xBD)-128 (0x80)
    Формат : AC-3
    Формат/Информация : Audio Coding 3
    Расширение режима : CM (complete main)
    Параметр Endianness формата : Big
    Режим смешивания : DVD-Video
    Продолжительность : 28 м.
    Вид битрейта : Постоянный
    Битрейт : 192 Кбит/сек
    Каналы : 2 канала
    Расположение каналов : Front: L R
    Частота : 48, 0 КГц
    Битовая глубина : 16 бит
    Метод сжатия : С потерями
    Задержка видео : -80 мс.
    Размер потока : 38, 7 Мбайт (4%)
    Аудио #2
    Идентификатор : 189 (0xBD)-129 (0x81)
    Формат : AC-3
    Формат/Информация : Audio Coding 3
    Расширение режима : CM (complete main)
    Параметр Endianness формата : Big
    Режим смешивания : DVD-Video
    Продолжительность : 28 м.
    Вид битрейта : Постоянный
    Битрейт : 192 Кбит/сек
    Каналы : 2 канала
    Расположение каналов : Front: L R
    Частота : 48, 0 КГц
    Битовая глубина : 16 бит
    Метод сжатия : С потерями
    Задержка видео : -80 мс.
    Размер потока : 38, 7 Мбайт (4%)
    Меню


    Скриншоты для ознакомления




    Онлайн видео Во всем виноват рай


    Прямая ссылка скачивания через uTorrent


    Во всем виноват рай/Tutta colpa del paradiso (1985) DVD5 [Custom] [MVO]
    загрузка...
    Рейтинг →
     (голосов: 1, оценка 4/5, голосовать можно 1 раз )

    Другие торренты по теме:

  • Во всем виноват Фрейд / Tutta colpa di Freud (2014) HDRip [VO]
  • Во всем виноват Рио / Blame It on Rio (1984) WEB-DLRip [H.264] скачать через торрент бесплатно
  • Во всем виноват енот / Wakefield (2016) DVDRip [MVO] [AD]
  • Во всем виноват енот / Wakefield (2016) WEB-DL [H.264 / 1080p-LQ] [EN / EN Sub]
  • Во всем виноват енот / Wakefield (2016) BDRip [H.264 / 720p] [Line] [AD]
  • Во всем виноват енот / Wakefield (2016) HDRip [Line] [AD]
  • Во всем виноват енот / Wakefield (2016) BDRemux [H.264 / 1080p] [EN / EN, Sp Sub]
  • Во всем виноват енот / Wakefield (2016) BDRip [H.264]


    • Комментарии (0):

      Информация

      Информация

        Посетители, находящиеся в группе Гости, не могут оставлять комментарии в данной новости.

        ↓ Меню




        ↓ Опрос

        Вы добавили сайт в закладки?
        Да
        Нет


        Top 10 за месяц (Фильмы)