.
Авторизация | Регистрация
Хочешь лучшие торренты? Добавь свой email!
Добавить

Торрент скачать бесплатно

» » Oscar Peterson Trio - Encore At The Blue Note (1993) 1998, Telarc[FLAC|Lossless|tracks + .cue] <Mainstream Jazz, Piano Jazz> торрент скачать бесплатно



    Oscar Peterson Trio - Encore At The Blue Note (1993) 1998, Telarc[FLAC|Lossless|tracks + .cue] <Mainstream Jazz, Piano Jazz> торрент скачать бесплатно

    Опубликовал: Админ | Дата: 12-02-2017, 05:00 | Просмотров: 0

    Год записи: 1993
    Жанр: Mainstream Jazz, Piano Jazz
    Издание: Oldis/Telarc
    Продолжительность: 01: 14: 50
    Кодек: FLAC (tracks+.cue)
    Битрейт: Lossless
    Источник (релизер): Собственный рип
    Страна-производитель диска: Russia
    Наличие сканов в содержимом раздачи: да
    Треклист:
    01.Falling In Love With Love 09: 39
    02.Here\'s That Rainy Day 09: 05
    03.Medley: Goodbye Old Girl - He Has Gone 13: 11
    04.The Gentle Waltz 08: 37
    05.Billie\'s Bounce 09: 27
    06.The More I See You 05: 18
    07.I Wished On The Moon 08: 49
    08.Cool Walk 10: 47

    Exact Audio Copy V1.0 beta 3 from 29. О таком странном сюжете не догадывалась даже Настя Каменских. August 2011
    Отчёт EAC об извлечении, выполненном 17. декабря 2011, 14: 07
    Oscar Peterson Trio/Encore At The Blue Note
    Дисковод: TSSTcorpCDDVDW SH-S223C Adapter: 5 ID: 0
    Режим чтения : Достоверность
    Использование точного потока : Да
    Отключение кэша аудио : Да
    Использование указателей C2 : Нет
    Коррекция смещения при чтении : 697
    Способность читать области Lead-in и Lead-out : Нет
    Заполнение пропущенных сэмплов тишиной : Да
    Удаление блоков с тишиной в начале и конце : Нет
    При вычислениях CRC использовались нулевые сэмплы : Да
    Интерфейс : Установленный внешний ASPI-интерфейс
    Обработка зазоров : Добавлено к предыдущему треку
    Выходной формат : Пользовательский кодировщик
    Выбранный битрейт : 128 kBit/s
    Качество : Высокий
    Добавление ID3-тега : Нет
    Утилита сжатия : C: Program FilesExact Audio CopyFlacflac.exe
    Дополнительные параметры : -V -8 -T Genre=%genre% -T Artist=%artist% -T Title=%title% -T Album=%albumtitle% -T Date=%year% -T Tracknumber=%tracknr% -T Comment=%comment% %source%
    TOC извлечённого CD
    Трек | Старт | Длительность | Начальный сектор | Конечный сектор
    ---------------------------------------------------------------------
    1 | 0: 00.00 | 9: 38.22 | 0 | 43371
    2 | 9: 38.22 | 9: 04.20 | 43372 | 84191
    3 | 18: 42.42 | 13: 10.45 | 84192 | 143486
    4 | 31: 53.12 | 8: 36.30 | 143487 | 182216
    5 | 40: 29.42 | 9: 26.68 | 182217 | 224734
    6 | 49: 56.35 | 5: 17.47 | 224735 | 248556
    7 | 55: 14.07 | 8: 48.55 | 248557 | 288211
    8 | 64: 02.62 | 10: 46.25 | 288212 | 336686
    Трек 1
    Имя файла C: Шахматы1998.Oscar Peterson Trio - Encore At The Blue Note1. Falling In Love With Love.wav
    Длина предзазора 0: 00: 02.00
    Пиковый уровень 100.0 %
    Скорость извлечения 2.0 X
    Качество трека 99.9 %
    CRC теста 184B340C
    CRC копии 184B340C
    Точность не определена (достоверность 15) 340A0FF0, AccurateRip вернул C10F9BC8 (AR v2)
    Копирование... OK
    Трек 2
    Имя файла C: Шахматы1998.Oscar Peterson Trio - Encore At The Blue Note2. Here\'s That Rainy Day.wav
    Длина предзазора 0: 00: 12.72
    Пиковый уровень 58.6 %
    Скорость извлечения 2.5 X
    Качество трека 100.0 %
    CRC теста 1A76AAD7
    CRC копии 1A76AAD7
    Точность не определена (достоверность 14) 7FBB852C, AccurateRip вернул 9C58184C (AR v2)
    Копирование... Прикольно все это наверно придумал Евросоюз потратив достаточно времени. OK
    Трек 3
    Имя файла C: Шахматы1998.Oscar Peterson Trio - Encore At The Blue Note3. Medley- Goodbye Old Girl - He Has Gone.wav
    Длина предзазора 0: 00: 04.17
    Пиковый уровень 100.0 %
    Скорость извлечения 2.9 X
    Качество трека 100.0 %
    CRC теста A3D1F498
    CRC копии A3D1F498
    Точность не определена (достоверность 14) 7061545F, AccurateRip вернул D0C96F13 (AR v2)
    Копирование... OK
    Трек 4
    Имя файла C: Шахматы1998.Oscar Peterson Trio - Encore At The Blue Note4. The Gentle Waltz.wav
    Длина предзазора 0: 00: 10.25
    Пиковый уровень 62.8 %
    Скорость извлечения 3.2 X
    Качество трека 100.0 %
    CRC теста E1C64EDD
    CRC копии E1C64EDD
    Точность не определена (достоверность 15) 4BC31A13, AccurateRip вернул 8F908607 (AR v2)
    Копирование... OK
    Трек 5
    Имя файла C: Шахматы1998.Oscar Peterson Trio - Encore At The Blue Note5. Billie\'s Bounce.wav
    Длина предзазора 0: 00: 01.30
    Пиковый уровень 89.2 %
    Скорость извлечения 3.5 X
    Качество трека 100.0 %
    CRC теста 22BFF1A5
    CRC копии 22BFF1A5
    Точность не определена (достоверность 15) BBE2F800, AccurateRip вернул 4A0F8618 (AR v2)
    Копирование... OK
    Трек 6
    Имя файла C: Шахматы1998.Oscar Peterson Trio - Encore At The Blue Note6. The More I See You.wav
    Длина предзазора 0: 00: 11.10
    Пиковый уровень 47.2 %
    Скорость извлечения 3.5 X
    Качество трека 100.0 %
    CRC теста E7D6F7F8
    CRC копии E7D6F7F8
    Точность не определена (достоверность 15) 5A7BE2A9, AccurateRip вернул B2CC030F (AR v2)
    Копирование... OK
    Трек 7
    Имя файла C: Шахматы1998.Oscar Peterson Trio - Encore At The Blue Note7. I Wished On The Moon.wav
    Длина предзазора 0: 00: 07.32
    Пиковый уровень 100.0 %
    Скорость извлечения 3.8 X
    Качество трека 100.0 %
    CRC теста B8363A76
    CRC копии B8363A76
    Точность не определена (достоверность 15) B669CD6D, AccurateRip вернул 7A3309CE (AR v2)
    Копирование... Самое интересное в это истории, что об этом Евросоюз ничего не знал. OK
    Трек 8
    Имя файла C: Шахматы1998.Oscar Peterson Trio - Encore At The Blue Note8. Cool Walk.wav
    Длина предзазора 0: 00: 06.12
    Пиковый уровень 100.0 %
    Скорость извлечения 4.1 X
    Качество трека 100.0 %
    CRC теста D9425027
    CRC копии D9425027
    Точность не определена (достоверность 15) D26D574D, AccurateRip вернул A67BB1B1 (AR v2)
    Копирование... OK
    Ни один трек не прошёл проверки на точность
    В вашей базе может быть иной вариант штамповки диска
    Ошибок не произошло
    Конец отчёта
    ==== Контрольная сумма отчёта 548C0CB1DBFF4B57DA35E84A8FFC2A809BB8323B343C76D50B40200B6E398C0B ====

    REM GENRE Jazz
    REM DATE 1998
    REM DISCID 6D118908
    REM COMMENT ExactAudioCopy v1.0b3
    PERFORMER Oscar Peterson Trio
    TITLE Encore At The Blue Note
    FILE 01. Falling In Love With Love.wav WAVE
    TRACK 01 AUDIO
    TITLE Falling In Love With Love
    PERFORMER Oscar Peterson Trio
    INDEX 01 00: 00: 00
    TRACK 02 AUDIO
    TITLE Here\'s That Rainy Day
    PERFORMER Oscar Peterson Trio
    INDEX 00 09: 25: 25
    FILE 02. Here\'s That Rainy Day.wav WAVE
    INDEX 01 00: 00: 00
    TRACK 03 AUDIO
    TITLE Medley: Goodbye Old Girl - He Has Gone
    PERFORMER Oscar Peterson Trio
    INDEX 00 09: 00: 03
    FILE 03. Medley- Goodbye Old Girl - He Has Gone.wav WAVE
    INDEX 01 00: 00: 00
    TRACK 04 AUDIO
    TITLE The Gentle Waltz
    PERFORMER Oscar Peterson Trio
    INDEX 00 13: 00: 20
    FILE 04. The Gentle Waltz.wav WAVE
    INDEX 01 00: 00: 00
    TRACK 05 AUDIO
    TITLE Billie\'s Bounce
    PERFORMER Oscar Peterson Trio
    INDEX 00 08: 35: 00
    FILE 05. Billie\'s Bounce.wav WAVE
    INDEX 01 00: 00: 00
    TRACK 06 AUDIO
    TITLE The More I See You
    PERFORMER Oscar Peterson Trio
    INDEX 00 09: 15: 58
    FILE 06. The More I See You.wav WAVE
    INDEX 01 00: 00: 00
    TRACK 07 AUDIO
    TITLE I Wished On The Moon
    PERFORMER Oscar Peterson Trio
    INDEX 00 05: 10: 15
    FILE 07. I Wished On The Moon.wav WAVE
    INDEX 01 00: 00: 00
    TRACK 08 AUDIO
    TITLE Cool Walk
    PERFORMER Oscar Peterson Trio
    INDEX 00 08: 42: 43
    FILE 08. Cool Walk.wav WAVE
    INDEX 01 00: 00: 00

    -----------------------
    DON\'T MODIFY THIS FILE
    -----------------------
    PERFORMER: auCDtect Task Manager, ver. О таком странном сюжете не догадывалась даже Настя Каменских. 1.6.0 RC1 build 1.6.0.1
    Copyright (c) 2008-2010 y-soft. All rights reserved
    http://y-soft.org
    ANALYZER: auCDtect: CD records authenticity detector, version 0.8.2
    Copyright (c) 2004 Oleg Berngardt. All rights reserved.
    Copyright (c) 2004 Alexander Djourik. All rights reserved.
    FILE: 08. Cool Walk.flac
    Size: 55959926 Hash: 0B7F49972028AA1AEEB2C6D4CD2B6ECC Accuracy: -m0
    Conclusion: CDDA 100%
    Signature: 09E966FDF659CB0BBECD0F1CD9676EE185B663F3
    FILE: 07. Самое интересное в это истории, что об этом Евросоюз ничего не знал. I Wished On The Moon.flac
    Size: 46504601 Hash: 78F526CBA087E4021E86AF427C91DB92 Accuracy: -m0
    Conclusion: CDDA 99%
    Signature: 43CC0C29BFB105C02FFD07AAD58B038A1D900475
    FILE: 06. The More I See You.flac
    Size: 14604321 Hash: 788CFE0805A43B09E9B51D9F5D2294F1 Accuracy: -m0
    Conclusion: CDDA 100%
    Signature: BC9E0CAA75E4F065D8BAA94573B504A87BB2F36F
    FILE: 05. Billie\'s Bounce.flac
    Size: 51911973 Hash: 33573BE0172CFA7F243D5C3E5E31006F Accuracy: -m0
    Conclusion: CDDA 100%
    Signature: 0F20C15578B2A73A740F0BBD53BCD2805763D84D
    FILE: 04. The Gentle Waltz.flac
    Size: 34364307 Hash: DBBACC45C56A9E6E751DD26C145FA66C Accuracy: -m0
    Conclusion: CDDA 100%
    Signature: EE67F9B5409FDD3BDBA73455502D963A19DBF1E2
    FILE: 03. Medley- Goodbye Old Girl - He Has Gone.flac
    Size: 48406131 Hash: 164E9763EE4BB93227E2234E61363664 Accuracy: -m0
    Conclusion: CDDA 100%
    Signature: 3DACE70FBB9D51510BF1BE952674198BE7726EA3
    FILE: 02. Here\'s That Rainy Day.flac
    Size: 43158393 Hash: 11EF7E396E0C6124CF8B2109B8783E45 Accuracy: -m0
    Conclusion: CDDA 99%
    Signature: 173544C713E9021CC698936F07F8B382455550DC
    FILE: 01. Falling In Love With Love.flac
    Size: 54000961 Hash: AC653A9DF5B906D8957A5AC6D4C6C5A2 Accuracy: -m0
    Conclusion: CDDA 100%
    Signature: FBF64E8FD4A8F77D98C90EED7C66EB86472AB3AD

    Прямая ссылка скачивания через uTorrent


    Oscar Peterson Trio - Encore At The Blue Note (1993) 1998, Telarc[FLAC|Lossless|tracks + .cue] <Mainstream Jazz, Piano Jazz>
    загрузка...
    Рейтинг →
     (голосов: 1, оценка 4/5, голосовать можно 1 раз )

    Другие торренты по теме:

  • The Modern Jazz Quartet And The Oscar Peterson Trio - At The Opera House (2013) [FLAC|Lossless]<Jazz, Cool, Third Stream> скачать через торрент бесплатно
  • Oscar Peterson - Time After Time (1986) 2000, Pablo Records[FLAC|tracks+.cue]<Mainstream Jazz, Piano Jazz> скачать через торрент бесплатно
  • Oscar Peterson - Jam Montreux 77 (1977) 1989, Prestige[FLAC|Lossless|tracks + .cue] <Mainstream Jazz>
  • Oscar Peterson - Jazz Manifesto (1949 -1996) 2CD, 2007, Performance Records[FLAC|Lossless|image + .cue] <Mainstream Jazz, Piano Jazz>
  • Oscar Peterson - 5 Original Albums (1955, 1959, 1962) 5CD, Remaster, Universal, 2016 [FLAC|Lossless|tracks + .cue] <Mainstream Jazz, Piano Jazz>
  • The Oscar Peterson Trio - Walking The Line (1970) 2005, Universal [FLAC|Lossless|image + .cue] <Mainstream Jazz, Piano Jazz>


    • Комментарии (0):

      Информация

      Информация

        Посетители, находящиеся в группе Гости, не могут оставлять комментарии в данной новости.

        ↓ Меню




        ↓ Опрос

        Вы добавили сайт в закладки?
        Да
        Нет


        Top 10 за месяц (Фильмы)