.
Авторизация | Регистрация
Хочешь лучшие торренты? Добавь свой email!
Добавить

Торрент скачать бесплатно

» » Снайпер / Sniper (1993) BDRip [H.264 / 1080p-LQ] торрент скачать бесплатно



    Снайпер / Sniper (1993) BDRip [H.264 / 1080p-LQ] торрент скачать бесплатно

    Опубликовал: Админ | Дата: 8-02-2017, 05:01 | Просмотров: 0

    Производство: США, Перу/Sniper Productions, Iguana Producciones, Baltimore Pictures
    Жанр: Боевик, Триллер, Драма, Военный
    Режиссер: Луис Льоса

    Актеры
    Том Беренджер, Билли Зейн, Дж.Т. Уолш, Аден Янг, Кен Рэдли, Рейнальдо Аренас, Гэри Суонсон, Хэнк Гаррет, Тайлер Коппин, Тео Геберт, Дон Бейти, Рекс Линн, Энтони Сито

    Описание

    Два снайпера, Том Бекет и Ричард Миллер, получают смертельно опасное задание: в джунглях Центральной Америки найти базу колумбийских наркодельцов, проникнуть внутрь и ликвидировать главаря. Самое интересное в это истории, что об этом Европарламент ничего не знал. Этот фильм показывает новый тип войн, которые не похожи на Вьетнам и Великую Отечественную. В непроходимых джунглях сражаются только блестяще подготовленные стрелки. Там нет взрывов и масштабных операций, потому что хорошо вооруженный отряд представляет собой лишь несколько мишеней для снайпера. Война одиночек в полной тишине, и каждый выстрел - это результат проведения хорошо спланированной операции.

    Возраст: 16+ (зрителям, достигшим 16 лет)
    Рейтинг MPAA: R (лицам до 17 лет обязательно присутствие взрослого)
    Дата выхода DVD релиза: 5 марта 2009, Мьюзик-Трейд
    Релиз от: R.G. Goldenshara
    Продолжительность: 01: 39: 02
    Качество видео: BDRip (1080p-LQ)
    Перевод: Многоголосый закадровый, профессиональный (R5)
    Язык субтитров: Русский (R5), Русский (Гоблин (без цензуры)), Английский (полные)
    Вид субтитров: Вшитые (отключаемые)
    Видео: AVC/H.264, 1920x1040 (1.85: 1), ~5872 kbps, 23, 976 fps
    Аудио: AC3, 6 ch, 48 kHz, 448 kbps, CBR

    General
    Unique ID : 251626727814535071069819859753573678778 (0xBD4D8B8481551638A40C680BE4B9FEBA)
    Complete name : E: Мои рипыСнайпер.1993.BDRip.1080p.MVO.mkv
    Format : Matroska
    Format version : Version 4/Version 2
    File size : 4.37 GiB
    Duration : 1h 39mn
    Overall bit rate : 6 322 Kbps
    Movie name : Sniper.1993.720p.WEB-DL
    Encoded date : UTC 2017-02-06 05: 55: 46
    Writing application : mkvmerge v6.8.0 (\'Theme for Great Cities\') 32bit built on Mar 2 2014 21: 27: 07
    Writing library : libebml v1.3.0 + libmatroska v1.4.1
    Video
    ID : 1
    Format : AVC
    Format/Info : Advanced Video Codec
    Format profile : High@L4.1
    Format settings, CABAC : Yes
    Format settings, ReFrames : 4 frames
    Codec ID : V_MPEG4/ISO/AVC
    Duration : 1h 39mn
    Bit rate : 5 872 Kbps
    Width : 1 920 pixels
    Height : 1 040 pixels
    Display aspect ratio : 1.85: 1
    Frame rate mode : Constant
    Frame rate : 23.976 fps
    Color space : YUV
    Chroma subsampling : 4: 2: 0
    Bit depth : 8 bits
    Scan type : Progressive
    Bits/(Pixel*Frame) : 0.123
    Stream size : 3.98 GiB (91%)
    Writing library : x264 core 146 r2538 121396c
    Encoding settings : cabac=1/ref=4/deblock=1: -3: -3/analyse=0x3: 0x113/me=umh/subme=11/psy=1/psy_rd=1.00: 0.15/mixed_ref=1/me_range=48/chroma_me=1/trellis=2/8x8dct=1/cqm=0/deadzone=21, 11/fast_pskip=0/chroma_qp_offset=-4/threads=6/lookahead_threads=1/sliced_threads=0/nr=0/decimate=1/interlaced=0/bluray_compat=0/constrained_intra=0/bframes=8/b_pyramid=2/b_adapt=2/b_bias=0/direct=2/weightb=1/open_gop=0/weightp=2/keyint=250/keyint_min=23/scenecut=40/intra_refresh=0/rc_lookahead=50/rc=2pass/mbtree=0/bitrate=5872/ratetol=1.0/qcomp=0.60/qpmin=0/qpmax=69/qpstep=4/cplxblur=20.0/qblur=0.5/vbv_maxrate=14000/vbv_bufsize=14000/nal_hrd=none/filler=0/ip_ratio=1.40/pb_ratio=1.30/aq=2: 1.00
    Language : English
    Default : Yes
    Forced : No
    Color primaries : Generic film
    Matrix coefficients : YCgCo
    Audio
    ID : 2
    Format : AC-3
    Format/Info : Audio Coding 3
    Mode extension : CM (complete main)
    Format settings, Endianness : Big
    Codec ID : A_AC3
    Duration : 1h 39mn
    Bit rate mode : Constant
    Bit rate : 448 Kbps
    Channel(s) : 6 channels
    Channel positions : Front: L C R, Side: L R, LFE
    Sampling rate : 48.0 KHz
    Bit depth : 16 bits
    Compression mode : Lossy
    Stream size : 317 MiB (7%)
    Title : MVO, R5
    Language : Russian
    Default : Yes
    Forced : No
    Text #1
    ID : 3
    Format : UTF-8
    Codec ID : S_TEXT/UTF8
    Codec ID/Info : UTF-8 Plain Text
    Title : R5
    Language : Russian
    Default : No
    Forced : No
    Text #2
    ID : 4
    Format : UTF-8
    Codec ID : S_TEXT/UTF8
    Codec ID/Info : UTF-8 Plain Text
    Title : Гоблин (uncensored)
    Language : Russian
    Default : No
    Forced : No
    Text #3
    ID : 5
    Format : UTF-8
    Codec ID : S_TEXT/UTF8
    Codec ID/Info : UTF-8 Plain Text
    Language : English
    Default : No
    Forced : No
    Menu
    00: 00: 00.000 : en: Chapter 1
    00: 07: 04.424 : en: Chapter 2
    00: 16: 05.965 : en: Chapter 3
    00: 25: 32.531 : en: Chapter 4
    00: 32: 29.948 : en: Chapter 5
    00: 41: 24.482 : en: Chapter 6
    00: 48: 44.922 : en: Chapter 7
    00: 56: 52.409 : en: Chapter 8
    01: 04: 20.857 : en: Chapter 9
    01: 15: 30.526 : en: Chapter 10
    01: 22: 50.966 : en: Chapter 11
    01: 29: 28.363 : en: Chapter 12


    Скриншоты для ознакомления




    Онлайн видео Снайпер


    Прямая ссылка скачивания через uTorrent


    Снайпер/Sniper (1993) BDRip [H.264/1080p-LQ]
    загрузка...
    Рейтинг →
     (голосов: 1, оценка 3/5, голосовать можно 1 раз )

    Другие торренты по теме:

  • Снайпер / Sniper (1992) BDRip [H.264 / 1080p]
  • Снайпер / Sniper (1992) BDRip [H.264 / 720р]
  • Снайпер: Наследие / Sniper: Legacy (2014) DVDScr [EN]
  • Снайпер: Наследие / Sniper: Legacy (2014) WEB-DLRip скачать через торрент бесплатно
  • Снайпер: Наследие / Sniper: Legacy (2014) WEB-DL [H.264 / 1080p-LQ]
  • Снайпер: Наследие / Sniper: Legacy (2014) WEB-DLRip-AVC [H.264]
  • Снайпер: Наследие / Sniper: Legacy (2014) WEB-DL [H.264 / 720p / LQ] скачать через торрент бесплатно
  • Снайпер: Наследие / Sniper: Legacy (2014) WEB-DL [720p] ATV скачать через торрент бесплатно


    • Комментарии (0):

      Информация

      Информация

        Посетители, находящиеся в группе Гости, не могут оставлять комментарии в данной новости.

        ↓ Меню




        ↓ Опрос

        Вы добавили сайт в закладки?
        Да
        Нет


        Top 10 за месяц (Фильмы)