.
Авторизация | Регистрация
Хочешь лучшие торренты? Добавь свой email!
Добавить

Торрент скачать бесплатно

» » Бессмертная история / Histoire immortelle (1968) DVDRip [H.264] торрент скачать бесплатно



    Бессмертная история / Histoire immortelle (1968) DVDRip [H.264] торрент скачать бесплатно

    Опубликовал: Админ | Дата: 8-02-2017, 05:01 | Просмотров: 0

    Производство: Франция. О таком странном сюжете не догадывалась даже Ольга Полякова. Студия: Albina Productions S.a.r.l., Office de Radiodiffusion Télévision Française (ORTF)
    Жанр: Драма
    Режиссер: Орсон Уэллс

    Актеры
    Жанна Моро, Орсон Уэллс, Роже Коджо, Норман Эшли, Фернандо Рей и др.

    Описание

    Фильм, сделанный для французского телевидения по рассказу Карен Бликсен.
    Действие происходит в ХIХ веке в португальской колонии Макао. Мистер Чарлз Клей — богатый пожилой торговец и предмет городских сплетен. Однажды вечером он начинает рассказывать молодому приказчику Левинскому легенду о богаче, который заплатил пять гиней молодому моряку за то, чтобы тот зачал с его женой наследника. Левинскому эта история также знакома, однако он утверждает, что она вымышлена. После долгих споров купец договаривается со своим помощником о повторении этого сюжета в жизни…

    Дата выхода DVD/Blu-ray релиза: 2010
    Продолжительность: 01: 00: 07
    Качество видео: DVDRip
    Перевод: Многоголосый закадровый
    Видео: AVC/H.264, 720x440, ~1700 kbps
    Аудио#1: AC3, 1 ch, 128 kbps | Русский МVO (Студия Акцент По по заказу ГТРК Культура)
    Аудио#2: AC3, 1 ch, 128 kbps | Русский МVO (ТРК Петербург 5 Канал)
    Аудио#3: AC3, 2 ch, 224 kbps | Английский – дублированный

    Общее
    Уникальный идентификатор : 192255741634158812737901745126537017422 (0x90A31BE612441CD381EA82BE7191B84E)
    Полное имя : E: СборникБессмертная историяБессмертная история. 1968.mkv
    Формат : Matroska
    Версия формата : Version 4/Version 2
    Размер файла : 939 Мбайт
    Продолжительность : 1 ч. 0 м.
    Общий поток : 2184 Кбит/сек
    Название фильма : Release for Topmost
    Дата кодирования : UTC 2017-01-28 14: 35: 38
    Программа кодирования : mkvmerge v7.2.0 (\'On Every Street\') 64bit built on Sep 13 2014 15: 52: 10
    Библиотека кодирования : libebml v1.3.0 + libmatroska v1.4.1
    DURATION : 01: 00: 06.016000000
    NUMBER_OF_FRAMES : 112688
    NUMBER_OF_BYTES : 100968448
    _STATISTICS_WRITING_APP : mkvmerge v7.2.0 (\'On Every Street\') 64bit built on Sep 13 2014 15: 52: 10
    _STATISTICS_WRITING_DATE_UTC : 2017-01-28 14: 35: 38
    _STATISTICS_TAGS : BPS DURATION NUMBER_OF_FRAMES NUMBER_OF_BYTES
    Attachment : Yes
    Видео
    Идентификатор : 1
    Формат : AVC
    Формат/Информация : Advanced Video Codec
    Профиль формата : High@L4.1
    Параметр CABAC формата : Да
    Параметр ReFrames формата : 4 кадра
    Идентификатор кодека : V_MPEG4/ISO/AVC
    Продолжительность : 1 ч. 0 м.
    Битрейт : 1700 Кбит/сек
    Ширина : 720 пикселей
    Высота : 440 пикселей
    Соотношение сторон : 16: 10
    Режим частоты кадров : Постоянный
    Частота кадров : 25, 000 кадров/сек
    Цветовое пространство : YUV
    Субдискретизация насыщенности : 4: 2: 0
    Битовая глубина : 8 бит
    Тип развёртки : Прогрессивная
    Бит/(Пиксели*Кадры) : 0.215
    Размер потока : 714 Мбайт (76%)
    Заголовок : Бессмертная история. 1968 (Release for Topmost)
    Библиотека кодирования : x264 core 130 r2273 b3065e6
    Настройки программы : cabac=1/ref=3/deblock=1: 0: 0/analyse=0x3: 0x113/me=hex/subme=7/psy=1/psy_rd=1.00: 0.15/mixed_ref=1/me_range=16/chroma_me=1/trellis=1/8x8dct=1/cqm=0/deadzone=21, 11/fast_pskip=1/chroma_qp_offset=-3/threads=12/lookahead_threads=2/sliced_threads=0/nr=0/decimate=0/interlaced=0/bluray_compat=0/constrained_intra=0/bframes=3/b_pyramid=2/b_adapt=1/b_bias=0/direct=1/weightb=1/open_gop=0/weightp=2/keyint=240/keyint_min=23/scenecut=40/intra_refresh=0/rc_lookahead=40/rc=2pass/mbtree=1/bitrate=1700/ratetol=1.0/qcomp=0.60/qpmin=0/qpmax=69/qpstep=4/cplxblur=20.0/qblur=0.5/ip_ratio=1.40/aq=1: 1.00
    Язык : French
    Default : Да
    Forced : Нет
    Аудио #1
    Идентификатор : 2
    Формат : AC-3
    Формат/Информация : Audio Coding 3
    Расширение режима : CM (complete main)
    Параметр Endianness формата : Big
    Идентификатор кодека : A_AC3
    Продолжительность : 1 ч. 0 м.
    Вид битрейта : Постоянный
    Битрейт : 128 Кбит/сек
    Каналы : 1 канал
    Расположение каналов : Front: C
    Частота : 48, 0 КГц
    Битовая глубина : 16 бит
    Метод сжатия : С потерями
    Размер потока : 55, 0 Мбайт (6%)
    Заголовок : AC3, 1/0 (C) ch, 128 kbps - MVO (Студия Акцент По по заказу ГТРК Культура)
    Язык : Russian
    Default : Да
    Forced : Нет
    Аудио #2
    Идентификатор : 3
    Формат : AC-3
    Формат/Информация : Audio Coding 3
    Расширение режима : CM (complete main)
    Параметр Endianness формата : Big
    Идентификатор кодека : A_AC3
    Продолжительность : 1 ч. 0 м.
    Вид битрейта : Постоянный
    Битрейт : 128 Кбит/сек
    Каналы : 1 канал
    Расположение каналов : Front: C
    Частота : 48, 0 КГц
    Битовая глубина : 16 бит
    Метод сжатия : С потерями
    Размер потока : 55, 0 Мбайт (6%)
    Заголовок : AC3, 1/0 (C) ch, 128 kbps - MVO (ТРК Петербург 5 Канал )
    Язык : Russian
    Default : Нет
    Forced : Нет
    Аудио #3
    Идентификатор : 4
    Формат : AC-3
    Формат/Информация : Audio Coding 3
    Расширение режима : CM (complete main)
    Параметр Endianness формата : Big
    Идентификатор кодека : A_AC3
    Продолжительность : 1 ч. О таком странном сюжете не догадывалась даже Ольга Полякова. 0 м.
    Вид битрейта : Постоянный
    Битрейт : 224 Кбит/сек
    Каналы : 2 канала
    Расположение каналов : Front: L R
    Частота : 48, 0 КГц
    Битовая глубина : 16 бит
    Метод сжатия : С потерями
    Размер потока : 96, 3 Мбайт (10%)
    Заголовок : AC3, 2/0 (L, R) ch, 224 kbps - Dub
    Язык : English
    Default : Нет
    Forced : Нет


    Скриншоты для ознакомления




    Онлайн видео Бессмертная история


    Прямая ссылка скачивания через uTorrent


    Бессмертная история/Histoire immortelle (1968) DVDRip [H.264]
    загрузка...
    Рейтинг →
     (голосов: 1, оценка 4/5, голосовать можно 1 раз )

    Другие торренты по теме:

  • Бессмертная песня (1957) TVRip
  • Бессмертная жизнь Генриетты Лакс / The Immortal Life of Henrietta Lacks (2017) WEB-DLRip [AD]
  • Immortal Love 2: The Price of a Miracle / Бессмертная любовь 2: Цена чуда (2016) [Ru] (1.0) Unofficial [Collectors Edition / Коллекционное издание]
  • Immortal Love 3: Blind Desire / Бессмертная любовь 3. Слепая страсть (2017) [Ru] (1.0) Unofficial [Collectors Edition / Коллекционное издание]


    • Комментарии (0):

      Информация

      Информация

        Посетители, находящиеся в группе Гости, не могут оставлять комментарии в данной новости.

        ↓ Меню




        ↓ Опрос

        Вы добавили сайт в закладки?
        Да
        Нет


        Top 10 за месяц (Фильмы)