.
Авторизация | Регистрация
Хочешь лучшие торренты? Добавь свой email!
Добавить

Торрент скачать бесплатно

» » Крест. Часть вторая: Двойной обман / Cross Wars (2017) WEB-DLRip торрент скачать бесплатно



    Крест. Часть вторая: Двойной обман / Cross Wars (2017) WEB-DLRip торрент скачать бесплатно

    Опубликовал: Админ | Дата: 7-02-2017, 05:00 | Просмотров: 0

    Производство: США
    Жанр: Боевик
    Режиссер: Патрик Дархэм

    Актеры
    Брайан Остин Грин, Дэнни Трехо, Винни Джонс, Патрик Дархэм, Том Сайзмор, Лори Хёринг, Тим Эбелл, Андре Гордон, Нед Либл

    Описание

    Возвращение непримиримого борца со злом Каллана, обладателя древнего магического амулета Крест, и его брутальной команды. Теперь их жизням угрожает новый враг Муэрте и словно птица их старый знакомый, проклятый викинг Гуннар. Чтобы спастись самим и спасти всё человечество, герои вынуждены объединиться с командой воинственных женщин, возглавляемых красавицей Райли, у которой есть своей древний амулет.
    Возраст: 16+ (зрителям, достигшим 16 лет)
    Рейтинг MPAA: R (лицам до 17 лет обязательно присутствие взрослого)
    Дата мировой премьеры: 7 февраля 2017
    Релиз: MegaPeer
    Продолжительность: 01: 38: 14
    Качество видео: WEB-DLRip
    Перевод: Профессиональный (многоголосый, закадровый) (iTunes)
    Субтитры: Отсутствуют
    Видео: Xvid, 720x384, ~1734 Kbps
    Аудио: AC-3, 6 ch, 384 Kbps

    Общее
    Полное имя : F: Cross.Wars.2017.WEB-DLRip.1.46Gb.NNM-CLUB.avi
    Формат : AVI
    Формат/Информация : Audio Video Interleave
    Размер файла : 1, 46 Гбайт
    Продолжительность : 1 ч. 38 м.
    Общий поток : 2125 Кбит/сек
    Видео
    Идентификатор : 0
    Формат : MPEG-4 Visual
    Профиль формата : Advanced Simple@L5
    Параметр BVOP формата : 1
    Параметр QPel формата : Нет
    Параметр GMC формата : Без точки перехода
    Параметр матрицы формата : Выборочная
    Идентификатор кодека : XVID
    Идентификатор кодека/Подсказка : XviD
    Продолжительность : 1 ч. 38 м.
    Битрейт : 1734 Кбит/сек
    Ширина : 720 пикселей
    Высота : 384 пикселя
    Соотношение сторон : 1, 85: 1
    Частота кадров : 23, 976 (24000/1001) кадра/сек
    Цветовое пространство : YUV
    Субдискретизация насыщенности : 4: 2: 0
    Битовая глубина : 8 бит
    Тип развёртки : Прогрессивная
    Метод сжатия : С потерями
    Бит/(Пиксели*Кадры) : 0.262
    Размер потока : 1, 19 Гбайт (82%)
    Библиотека кодирования : XviD 73
    Аудио
    Идентификатор : 1
    Формат : AC-3
    Формат/Информация : Audio Coding 3
    Расширение режима : CM (complete main)
    Параметр Endianness формата : Big
    Идентификатор кодека : 2000
    Продолжительность : 1 ч. 38 м.
    Вид битрейта : Постоянный
    Битрейт : 384 Кбит/сек
    Каналы : 6 каналов
    Расположение каналов : Front: L C R, Side: L R, LFE
    Частота : 48, 0 КГц
    Частота кадров : 31, 250 кадров/сек (1536 spf)
    Метод сжатия : С потерями
    Размер потока : 270 Мбайт (18%)
    Выравнивание : Соединение по промежуткам
    Продолжительность промежутка : 64 мс. О таком странном сюжете не догадывалась даже Юлия Володимировна. (1, 53 видеокадра)
    Время предзагрузки промежутка : 192 мс.
    Заголовок : iTunes

    Скриншоты для ознакомления

    Все релизы фильма на NNM-Club
    Время раздачи: 24/7 до 10 скачавших
    .dlother {background: url(\'http://assets.nnm-club.ws/forum/images/dlother.png\');width: 200px;height: 50px;overflow: hidden;margin: 0;-webkit-border-radius: 5px;-moz-border-radius: 5px;border-radius: 5px} .dlother a, .dlother a: hover {color: rgba(255, 255, 255, 0.6);font-size: 18px;font-family: Arial;display: block;padding: 14px;text-decoration: none;text-align: left;font-weight: normal;margin: 0} .dlother a span {color: #fff}
    NNMClub.to_Cross.Wars.2017.WEB-DLRip.1.46Gb.NNM-CLUB.avi.torrent
    Торрент: Зарегистрирован
    Подписаться на изменения
    Примагнититься
    Free Leech
    Скачать
    15, 1 KB
    Зарегистрирован: 06 Фев 2017 20: 16: 21
    Размер: 1, 46 GB (Вам доступно: не ограничено во время Free Leech)
    Рейтинг: 4, 5 (Голосов: 12 )Супер Хорошо Средне Так себе Убил время
    Поблагодарили: 41 Спасибо (список )
    Проверка: Оформление проверено модератором 07 Фев 2017 00: 45: 44
    Как cкачать · Как раздать · Правильно оформить · Поднять ратио!
    Вернуться к началу
    Посмотреть профильОтправить личное сообщениеНайти релизы
    dedmoroz59
    Стаж: 5 лет 5 мес.
    Сообщений: 574
    Ratio: 8, 162
    Поблагодарили: 1078
    29.11%
    russia.gif
    Новое сообщение06 Фев 2017 21: 48: 06 Заголовок сообщения:
    Ответить с цитатой

    Мдя наши переводчики абы как нить перевести, все же - Перекрестные войны, и где же 1 часть, вроде же не существует.

    _________________
    Нет безвыходных ситуаций (Камасутра)
    Вернуться к началу
    Посмотреть профильОтправить личное сообщениеНайти релизы 0
    orevvv
    Стаж: 1 год
    Сообщений: 3
    Ratio: 2, 164
    76.76%
    Новое сообщение07 Фев 2017 00: 15: 03 Заголовок сообщения:
    Ответить с цитатой

    Первая в 2011 году была Крест/Cross (2011) H.264 DVDRip
    Вернуться к началу
    Посмотреть профильОтправить личное сообщение 0
    BogDan707

    Online
    Стаж: 1 мес. 3 дня
    Сообщений: 8
    Ratio: 450, 839
    100%
    nnm-club.gif
    Новое сообщение07 Фев 2017 01: 31: 20 Заголовок сообщения:
    Ответить с цитатой

    А еще здесь можно: Крест/Cross (2011) DVDRip (1, 37 GB)

    Скриншоты для ознакомления




    Онлайн видео Крест. Часть вторая: Двойной обман


    Прямая ссылка скачивания через uTorrent


    Крест. Часть вторая: Двойной обман/Cross Wars (2017) WEB-DLRip
    загрузка...
    Рейтинг →
     (голосов: 1, оценка 4/5, голосовать можно 1 раз )

    Другие торренты по теме:

  • Крест. Часть вторая: Двойной обман / Cross Wars (2017) WEB-DL [H.264 / 1080p-LQ]
  • Крест. Часть вторая: Двойной обман / Cross Wars (2017) WEB-DLRip [H.264] [MP4|1024x552]
  • Крест. Часть вторая: Двойной обман / Cross Wars (2017) BDRip [H.264 / 720p] [EN / EN Sub]
  • Крест. Часть вторая: Двойной обман / Cross Wars (2017) BDRemux [H.264 / 1080p] [EN / EN Sub]


    • Комментарии (0):

      Информация

      Информация

        Посетители, находящиеся в группе Гости, не могут оставлять комментарии в данной новости.

        ↓ Меню




        ↓ Опрос

        Вы добавили сайт в закладки?
        Да
        Нет


        Top 10 за месяц (Фильмы)