.
Авторизация | Регистрация
Хочешь лучшие торренты? Добавь свой email!
Добавить

Торрент скачать бесплатно

» » Сверхъестественное / Supernatural (2016) HDTVRip (сезон 12, серии 1 из 23) [EN / RU, EN Sub] (обновляемая) торрент скачать бесплатно




    Сверхъестественное / Supernatural (2016) HDTVRip (сезон 12, серии 1 из 23) [EN / RU, EN Sub] (обновляемая) торрент скачать бесплатно

    Опубликовал: Админ | Дата: 17-10-2016, 04:00 | Просмотров: 8

    Производство: США
    Жанр: Ужасы, Фэнтези, Триллер, Драма
    Режиссер: Эрик Крипке

    Актеры
    Джаред Падалеки, Дженсен Эклс, Джим Бивер, Миша Коллинз, Марк Шеппард, Марк Пеллегрино, Женевьев Падалеки, Кэти Кэссиди, Джеймс Патрик Стюарт, Саманта Феррис и др.

    Описание

    Джаред Падалеки, Дженсен Эклс, Джим Бивер, Миша Коллинз, Марк Шеппард, Марк Пеллегрино, Женевьев Падалеки, Кэти Кэссиди, Джеймс Патрик Стюарт, Саманта Феррис и др.

    Возраст: 16+ (зрителям, достигшим 16 лет)
    Продолжительность: ~00: 42: 00 серия
    Качество видео: HDTVRip
    Перевод: Отсутствует
    Язык озвучки: Английский
    Вид субтитров: Отдельным файлом
    Язык субтитров: Русский, Английский
    Видео: Xvid, 720x400, ~1183 kb/s
    Аудио: MP3, 2 ch, 192 kb/s, CBR

    General
    Complete name : D: SupernaturalSupernatural 12 ENGSupernatural.S12E01.avi
    Format : AVI
    Format/Info : Audio Video Interleave
    File size : 417 MiB
    Duration : 42 min 5 s
    Overall bit rate : 1 384 kb/s
    Video
    ID : 0
    Format : MPEG-4 Visual
    Format profile : Advanced Simple@L5
    Format settings, BVOP : 2
    Format settings, QPel : No
    Format settings, GMC : No warppoints
    Format settings, Matrix : Default (MPEG)
    Codec ID : XVID
    Codec ID/Hint : XviD
    Duration : 42 min 5 s
    Bit rate : 1 183 kb/s
    Width : 720 pixels
    Height : 400 pixels
    Display aspect ratio : 16: 9
    Frame rate : 23.976 (23976/1000) FPS
    Color space : YUV
    Chroma subsampling : 4: 2: 0
    Bit depth : 8 bits
    Scan type : Progressive
    Compression mode : Lossy
    Bits/(Pixel*Frame) : 0.171
    Stream size : 356 MiB (85%)
    Writing library : XviD 73
    Audio
    ID : 1
    Format : MPEG Audio
    Format version : Version 1
    Format profile : Layer 3
    Mode : Joint stereo
    Codec ID : 55
    Codec ID/Hint : MP3
    Duration : 42 min 5 s
    Bit rate mode : Constant
    Bit rate : 192 kb/s
    Channel(s) : 2 channels
    Sampling rate : 48.0 kHz
    Compression mode : Lossy
    Stream size : 57.8 MiB (14%)
    Alignment : Split accross interleaves
    Interleave, duration : 42 ms (1.00 video frame)
    Interleave, preload duratio : 500 ms
    Writing library : LAME3.99r
    Encoding settings : -m j -V 4 -q 3 -lowpass 18.6 -b 192


    Скриншоты для ознакомления




    Онлайн видео Сверхъестественное



    Сверхъестественное/Supernatural (2016) HDTVRip (сезон 12, серии 1 из 23) [EN/RU, EN Sub] (обновляемая)
    загрузка...
    Рейтинг →
     (голосов: 1, оценка 3/5, голосовать можно 1 раз )

    Другие торренты по теме:

  • Сверхъестественное / Supernatural (2014) WEB-DLRip [720p] (сезон 10, серии 1 из ) LostFilm (oбновляемая)
  • Сверхъестественное / Supernatural (2014-2015) WEB-DLRip [H.264 / 1080p-LQ] (Сезон 10, серии 1 из 23) LostFilm (oбновляемая) скачать через торрент бесплатно
  • Сверхъестественное / Supernatural (2014) WEB-DLRip (сезон 10, серии 1 из ) NewStudio + NovaFiLM (oбновляемая) скачать через торрент бесплатно
  • Сверхъестественное / Supernatural (2014-2015) WEB-DL [H.264 / 1080p-LQ] (Сезон 10, серии 1 из 23) LostFilm (Обновляемая)
  • Сверхъестественное / Supernatural (2014) HDTVRip (Сезон 10, 1-2 серия из 23) [DreamRecords] (Обновляемая)
  • Сверхъестественное / Supernatural (2014) WEB-DLRip (сезон 10, серии 1-2 из ) BaibaKo (oбновляемая) скачать через торрент бесплатно
  • Сверхъестественное / Supernatural (2014-2015) HDTVRip (Сезон 10, серии 0-2 из 23) [EN EN, RU Sub] (Обновляемая) скачать через торрент бесплатно
  • Сверхъестественное / Supernatural (2014) WEB-DLRip (сезон 10, серии 1-2 из ) LostFilm (oбновляемая) скачать через торрент бесплатно


    • Комментарии (0):

      Информация

      Информация

        Посетители, находящиеся в группе Гости, не могут оставлять комментарии в данной новости.

        ↓ Меню




        ↓ Опрос

        Вы добавили сайт в закладки?
        Да
        Нет


        Top 10 за месяц (Фильмы)