.
Авторизация | Регистрация
Хочешь лучшие торренты? Добавь свой email!
Добавить

Торрент скачать бесплатно

» » Горизонт / Station Horizon (2015) WEBRip [H.264 / 720p-LQ] (сезон 1, серии 1-7 из 7) Sony Turbo торрент скачать бесплатно




    Горизонт / Station Horizon (2015) WEBRip [H.264 / 720p-LQ] (сезон 1, серии 1-7 из 7) Sony Turbo торрент скачать бесплатно

    Опубликовал: Админ | Дата: 17-10-2016, 04:00 | Просмотров: 27

    Производство: Швейцария, JumP Cut Production
    Жанр: драма
    Режиссер: Ромен Граф, Пьер-Адриан Ирле

    Актеры
    Бернард Йерле, Ролан Вуйио, Гаспар Беш, Александра Вандернот, Мари Фонтанна, Лавиния Лонги, Батист Жиллиерон, Клаудио Хила, Мелисса Эймон, Йоанн Бланк и др.

    Описание

    Действие сериала происходит в швейцарском кантоне Вале, где расположился вымышленный городок Горизонвилль. Среди живописных ландшафтов горной местности живёт свободолюбивое сообщество, создавшее у себя в городе атмосферу Дикого Запада. Здесь можно увидеть типичные американские автомобили и байкеров, зайти в стриптиз-бар и послушать музыку кантри. Именно сюда, в родной Горизонвилль, возвращается бывший заключённый Йорис, чтобы начать новую жизнь. Мужчине предстоит не очень приятная встреча с родными, бывшим другом и красавицей, в которую он был влюблён в молодости…

    Продолжительность: ~ 00: 45: 00 серия
    Качество видео: WEBRip
    Перевод: Профессиональный многоголосый закадровый -Sony Turbo
    Видео: AVC/H.264, 1280x720 (16: 9), ~3007-3200 Kbps
    Аудио Rus: AC3, 192 kbps, 2 ch, 48 kHz
    Общее
    Station Horizon - Горизонт. Сезон 1. Sony Turbo. 720pStation.Horizon.s01e01.WEBRip.720p.SonyTurbo.mkv
    Формат : Matroska
    Версия формата : Version 4/Version 2
    Размер файла : 1, 06 Гбайт
    Продолжительность : 46 м.
    Режим общего битрейта : Постоянный
    Общий поток : 3288 Кбит/сек
    Дата кодирования : UTC 2016-10-16 07: 51: 33
    Программа кодирования : mkvmerge v6.9.1 (\'Blue Panther\') 64bit built on Apr 18 2014 18: 23: 38
    Библиотека кодирования : libebml v1.3.0 + libmatroska v1.4.1
    Видео
    Идентификатор : 1
    Формат : AVC
    Формат/Информация : Advanced Video Codec
    Профиль формата : High@L4.0
    Параметр CABAC формата : Да
    Параметр ReFrames формата : 4 кадра
    Идентификатор кодека : V_MPEG4/ISO/AVC
    Продолжительность : 46 м.
    Вид битрейта : Постоянный
    Битрейт : 3030 Кбит/сек
    Номинальный битрейт : 3200 Кбит/сек
    Ширина : 1280 пикселей
    Высота : 720 пикселей
    Соотношение сторон : 16: 9
    Режим частоты кадров : Постоянный
    Частота кадров : 25, 000 кадров/сек
    Стандарт вещания : PAL
    Цветовое пространство : YUV
    Субдискретизация насыщенности : 4: 2: 0
    Битовая глубина : 8 бит
    Тип развёртки : Прогрессивная
    Бит/(Пиксели*Кадры) : 0.132
    Размер потока : 1004 Мбайт (92%)
    Default : Да
    Forced : Нет
    Основные цвета : BT.709
    Характеристики трансфера : BT.709
    Коэффициенты матрицы : BT.709
    colour_range : Limited
    Аудио
    Идентификатор : 2
    Формат : AC-3
    Формат/Информация : Audio Coding 3
    Расширение режима : CM (complete main)
    Параметр Endianness формата : Big
    Идентификатор кодека : A_AC3
    Продолжительность : 46 м.
    Вид битрейта : Постоянный
    Битрейт : 192 Кбит/сек
    Каналы : 2 канала
    Расположение каналов : Front: L R
    Частота : 48, 0 КГц
    Битовая глубина : 16 бит
    Метод сжатия : С потерями
    Размер потока : 63, 6 Мбайт (6%)
    Язык : Russian
    Default : Да
    Forced : Нет


    Скриншоты для ознакомления




    Онлайн видео Горизонт



    Горизонт/Station Horizon (2015) WEBRip [H.264/720p-LQ] (сезон 1, серии 1-7 из 7) Sony Turbo
    загрузка...
    Рейтинг →
     (голосов: 1, оценка 4/5, голосовать можно 1 раз )

    Другие торренты по теме:

  • Горизонт событий / Сквозь горизонт / Event Horizon (1997) HDRip [H.264] [MP4|960х400] скачать через торрент бесплатно
  • Сквозь горизонт / Горизонт событий / Event Horizon (1997) BDRip [H.264 / 1080p-LQ] скачать через торрент бесплатно
  • Сквозь горизонт (Горизонт событий) / Event Horizon (1997) BDRip [H.264 / 720p]
  • Идущие за горизонт (2 серии) (1972) SATRip
  • Log Horizon / Лог Горизонт [2014, TV, 25 ep] BDRip Hi10p 720p Raw+Rus
  • Log Horizon 2 / Лог Горизонт 2 [2014, TV, 1 из 25] HDTV Hi10p 720p Raw+Rus
  • Сквозь горизонт / Event Horizon (1997) BDRemux [1080p] скачать через торрент бесплатно
  • Сквозь горизонт / Event Horizon (1997) BDRip


    • Комментарии (0):

      Информация

      Информация

        Посетители, находящиеся в группе Гости, не могут оставлять комментарии в данной новости.

        ↓ Меню




        ↓ Опрос

        Вы добавили сайт в закладки?
        Да
        Нет


        Top 10 за месяц (Фильмы)