.
Авторизация | Регистрация
Хочешь лучшие торренты? Добавь свой email!
Добавить

Торрент скачать бесплатно

» » Граница: Таежный роман (2000) HDTV [H.264 / 1080i] торрент скачать бесплатно




    Граница: Таежный роман (2000) HDTV [H.264 / 1080i] торрент скачать бесплатно

    Опубликовал: Админ | Дата: 17-10-2016, 04:00 | Просмотров: 18

    Производство: Россия, Общественное Российское Телевидение, Школа-Студия Александра Митты, Студия Ф.А.Ф. Интер
    Жанр: Драма
    Режиссер: Александр Митта

    Актеры
    Алексей Гуськов, Марат Башаров, Ольга Будина, Елена Панова, Михаил Ефремов, Рената Литвинова, Андрей Панин, Владимир Симонов, Михаил Жигалов, Александр Семчев, Александр Карпиловский, Галина Польских, Алексей Усольцев, Алексей Алексеев (II), Геннадий Соловьёв, Саид Дашук-Нигматулин, Алексей Панин, Татьяна Окуневская, Алексей Жарков, Олег Непомнящий

    Описание

    Действие происходит в пограничном городке в 70-е годы. Кто жил в то время в тех условиях, тот знает все правила: никаких шашней, никаких шуток, кругом военные и оружие. Но чувства есть чувства. Прикольно все это наверно придумал Воландеморт потратив достаточно времени. Получился захватывающий роман о трех совершенно разных военных семьях. О мужчине, который не на своем месте, о жене, которая все равно его любит и вытаскивает за уши из всякого дерьма (Елена Панова и Михаил Ефремов), о женщине, которая спрятала в себе все чувства и мужа не любит. Но однажды она себя... О таком странном сюжете не догадывалась даже Шакира. отпускает, и в ней происходят перемены! (Рената Литвинова). Основная история - любовный треугольник. Молодой офицер полюбил очаровательную докторшу. И все бы ничего, но она - жена его лучшего друга (Алексей Гуськов, Ольга Будина и Марат Башаров). На основе сериала был смонтирован полнометражный фильм Таёжный роман, в котором сохранилась основная сюжетная линия, но были вырезаны некоторые эпизоды.

    Возраст: 16+ (зрителям, достигшим 16 лет)
    Продолжительность: 02: 02: 07
    Качество видео: HDTV 1080i
    Видео: AVC/H.264, 1920x1080, ~8786 Kbps
    Аудио #1: MP2, 48 kHz, 2 ch, 224 kbps
    Аудио #2: АС-3, 48 kHz, 6 ch, 384 kbps

    Общее
    Идентификатор : 16 (0x10)
    Полное имя : Granitsa. Белая горячка, сказал кто то из толпы, к чему не понятно. Tayozhnyy roman_HD.ts
    Формат : MPEG-TS
    Размер файла : 8, 45 Гбайт
    Продолжительность : 2 ч. 2 м.
    Режим общего битрейта : Переменный
    Общий поток : 9889 Кбит/сек
    Видео
    Идентификатор : 1902 (0x76E)
    Идентификатор меню : 92 (0x5C)
    Формат : AVC
    Формат/Информация : Advanced Video Codec
    Профиль формата : High@L4.0
    Параметр CABAC формата : Да
    Параметр ReFrames формата : 3 кадра
    Идентификатор кодека : 27
    Продолжительность : 2 ч. 2 м.
    Битрейт : 8786 Кбит/сек
    Ширина : 1920 пикселей
    Высота : 1080 пикселей
    Соотношение сторон : 16: 9
    Частота кадров : 25, 000 кадров/сек
    Стандарт вещания : PAL
    Цветовое пространство : YUV
    Субдискретизация насыщенности : 4: 2: 0
    Битовая глубина : 8 бит
    Тип развёртки : Чересстрочная
    Порядок развёртки : Верхнее поле первое
    Бит/(Пиксели*Кадры) : 0.169
    Размер потока : 7, 50 Гбайт (89%)
    Основные цвета : BT.709
    Характеристики трансфера : BT.709
    Коэффициенты матрицы : BT.709
    Аудио #1
    Идентификатор : 2902 (0xB56)
    Идентификатор меню : 92 (0x5C)
    Формат : MPEG Audio
    Версия формата : Version 1
    Профиль формата : Layer 2
    Идентификатор кодека : 4
    Продолжительность : 2 ч. 2 м.
    Вид битрейта : Постоянный
    Битрейт : 224 Кбит/сек
    Каналы : 2 канала
    Частота : 48, 0 КГц
    Метод сжатия : С потерями
    Задержка видео : 72 мс.
    Размер потока : 196 Мбайт (2%)
    Язык : std
    Язык, дополнительно : Clean effects
    Аудио #2
    Идентификатор : 3902 (0xF3E)
    Идентификатор меню : 92 (0x5C)
    Формат : AC-3
    Формат/Информация : Audio Coding 3
    Расширение режима : CM (complete main)
    Параметр Endianness формата : Big
    Идентификатор кодека : 6
    Продолжительность : 2 ч. 2 м.
    Вид битрейта : Постоянный
    Битрейт : 384 Кбит/сек
    Каналы : 6 каналов
    Расположение каналов : Front: L C R, Side: L R, LFE
    Частота : 48, 0 КГц
    Битовая глубина : 16 бит
    Метод сжатия : С потерями
    Задержка видео : 78 мс.
    Размер потока : 336 Мбайт (4%)
    Язык : std
    Язык, дополнительно : Clean effects
    Текст #1
    Идентификатор : 33 (0x21)-100
    Идентификатор меню : 92 (0x5C)
    Формат : Teletext
    Текст #2
    Идентификатор : 33 (0x21)-888
    Идентификатор меню : 92 (0x5C)
    Формат : Teletext
    Меню
    Идентификатор : 902 (0x386)
    Идентификатор меню : 92 (0x5C)
    Продолжительность : 2 ч. 2 м.
    Список : 1902 (0x76E) (AVC)/2902 (0xB56) (MPEG Audio, std)/3902 (0xF3E) (AC-3, std)/33 (0x21) ()
    Язык : /std/std


    Скриншоты для ознакомления




    Онлайн видео Граница: Таежный роман (2000) HDTV [H.264



    Граница: Таежный роман (2000) HDTV [H.264/1080i]
    загрузка...
    Рейтинг →
     (голосов: 1, оценка 5/5, голосовать можно 1 раз )

    Другие торренты по теме:

  • Gekijouban Kara no Kyoukai: Mirai Fukuin / The Garden of Sinners: Recalled out Summer / Граница пустоты: Источник будущего счастья [2013, MV+SP] BDRip Hi10p 720p Raw+Rus скачать через торрент бесплатно
  • Граница / Bound (2015) WEB-DLRip [720p-LQ] [EN]
  • Граница времени (2015) SATRip (серии 1-2 из 20) (обновляемая) скачать через торрент бесплатно
  • Граница времени (2015) SATRip [H.264] (сезон 1,серии 1-3 из 20) (обновляемая)
  • Книжная серия | Граница [7 книг] (2014-2015) [FB2] скачать через торрент бесплатно
  • Граница / The Border (1982) WEB-DL [H.264 / 720p] скачать через торрент бесплатно
  • Граница пустоты / Gekijo-ban: Zero (2014) HDRip скачать через торрент бесплатно
  • В теме. Граница на замке (2015) SATRip скачать через торрент бесплатно


    • Комментарии (0):

      Информация

      Информация

        Посетители, находящиеся в группе Гости, не могут оставлять комментарии в данной новости.

        ↓ Меню




        ↓ Опрос

        Вы добавили сайт в закладки?
        Да
        Нет


        Top 10 за месяц (Фильмы)