.
Авторизация | Регистрация
Хочешь лучшие торренты? Добавь свой email!
Добавить

Торрент скачать бесплатно

» » Бассейн / Swimming Pool (2003) BDRip [H.264 / 1080p] торрент скачать бесплатно




    Бассейн / Swimming Pool (2003) BDRip [H.264 / 1080p] торрент скачать бесплатно

    Опубликовал: Админ | Дата: 17-10-2016, 04:00 | Просмотров: 16

    Производство: Франция, Великобритания, Fidélité Productions, France 2 Cinéma, Gimages
    Жанр: Триллер, Драма
    Режиссер: Франсуа Озон

    Актеры
    Шарлотта Рэмплинг, Людивин Санье, Чарльз Дэнс, Жан-Мари Ламур, Марк Файоль, Мирей Моссе, Мишель Фо, Жан-Клод Лека, Эмили Гавуа-Кан, Эрарде Форестали

    Описание

    Английская писательница Сара Мортон приезжает в поместье своего издателя, дабы, в гордом одиночестве, с головой окунуться в работу и выдать через пару месяцев очередной бестселлер. Но едва Сара успевает написать первые строки нового романа, как на виллу приезжает юная Жюли — дочь хозяина. Мало того, что девушка пристает к Саре со своей нескончаемой болтовней и целыми днями слушает музыку, так еще и приводит каждую ночь в свою спальню новых постояльцев.
    Посему отношения мисс Мортон, у которой английская чопорность помножена на иудейскую спесь, и открытой болтливой Жюли складываются очень непросто. Разъяренная писательница не раз высказывает претензии юному созданию, на что та отвечает предельно кротко, старательно избегая скандала. Но при этом Сара тайком наблюдает за молоденькой девушкой во время любовных утех, после одной из которых даже прибирает к рукам снятые ею трусики. И, естественно, зрители, знакомые с творчеством Озона, будут упоенно ожидать момента, когда стареющая дама совратит и завалит в постель юную девицу.
    Ситуация предельно накаляется, когда очередная одноразовая связь Жюли оборачивается кровавой трагедией, кульминационным местом которой станет злосчастный бассейн, расположенный напротив особняка.

    Возраст: 16+ (зрителям, достигшим 16 лет)
    Рейтинг MPAA: R (лицам до 17 лет обязательно присутствие взрослого)
    Дата выхода Blu-ray релиза: 21.12.12
    Продолжительность: 01: 42: 25
    Качество видео: BDRip
    Перевод: Многоголосый закадровый, профессиональный
    Язык субтитров: Русский, Английский
    Вид субтитров: Вшитые отключаемые
    Видео: AVC/H.264, 1920x1080, ~9186 kbps
    Аудио #1: AC3, 6 ch, 384 kbps, CBR | Русский MVO
    Аудио #2: DTS, 6 ch, 1510 kbps, CBR | Английский

    General
    Unique ID : 229347154035755088417194536091432762600 (0xAC8AA7B8AE1D7CBCAA8B30219DBBBCE8)
    Complete name : E: Swimming Pool (2003).mkv
    Format : Matroska
    Format version : Version 4/Version 2
    File size : 7.93 GiB
    Duration : 1h 42mn
    Overall bit rate : 11.1 Mbps
    Movie name : |◄◄| ιι |Alexandr 80| ► | ■ |►►|
    Encoded date : UTC 2014-02-13 17: 50: 26
    Writing application : mkvmerge v6.5.0 (\'Isn\'t she lovely\') built on Oct 20 2013 12: 50: 05
    Writing library : libebml v1.3.0 + libmatroska v1.4.1
    Video
    ID : 1
    Format : AVC
    Format/Info : Advanced Video Codec
    Format profile : High@L4.1
    Format settings, CABAC : Yes
    Format settings, ReFrames : 4 frames
    Codec ID : V_MPEG4/ISO/AVC
    Duration : 1h 42mn
    Bit rate : 9 186 Kbps
    Width : 1 920 pixels
    Height : 1 080 pixels
    Display aspect ratio : 16: 9
    Frame rate mode : Constant
    Frame rate : 23.976 fps
    Color space : YUV
    Chroma subsampling : 4: 2: 0
    Bit depth : 8 bits
    Scan type : Progressive
    Bits/(Pixel*Frame) : 0.185
    Stream size : 6.41 GiB (81%)
    Writing library : x264 core 140 r2377 1ca7bb9
    Encoding settings : cabac=1/ref=4/deblock=1: -3: -3/analyse=0x3: 0x113/me=umh/subme=8/psy=1/psy_rd=1.00: 0.00/mixed_ref=1/me_range=16/chroma_me=1/trellis=1/8x8dct=1/cqm=0/deadzone=21, 11/fast_pskip=1/chroma_qp_offset=-2/threads=12/lookahead_threads=2/sliced_threads=0/nr=0/decimate=1/interlaced=0/bluray_compat=0/constrained_intra=0/bframes=3/b_pyramid=2/b_adapt=2/b_bias=0/direct=3/weightb=1/open_gop=0/weightp=2/keyint=240/keyint_min=24/scenecut=40/intra_refresh=0/rc_lookahead=50/rc=2pass/mbtree=1/bitrate=9186/ratetol=1.0/qcomp=0.60/qpmin=0/qpmax=69/qpstep=4/cplxblur=20.0/qblur=0.5/ip_ratio=1.40/aq=1: 1.00
    Language : English
    Default : Yes
    Forced : No
    Audio #1
    ID : 2
    Format : AC-3
    Format/Info : Audio Coding 3
    Mode extension : CM (complete main)
    Format settings, Endianness : Big
    Codec ID : A_AC3
    Duration : 1h 42mn
    Bit rate mode : Constant
    Bit rate : 384 Kbps
    Channel(s) : 6 channels
    Channel positions : Front: L C R, Side: L R, LFE
    Sampling rate : 48.0 KHz
    Compression mode : Lossy
    Stream size : 281 MiB (3%)
    Title : Профессиональный многоголосый
    Language : Russian
    Default : Yes
    Forced : No
    Audio #2
    ID : 3
    Format : DTS
    Format/Info : Digital Theater Systems
    Mode : 16
    Format settings, Endianness : Big
    Codec ID : A_DTS
    Duration : 1h 42mn
    Bit rate mode : Constant
    Bit rate : 1 509 Kbps
    Channel(s) : 6 channels
    Channel positions : Front: L C R, Side: L R, LFE
    Sampling rate : 48.0 KHz
    Bit depth : 24 bits
    Compression mode : Lossy
    Stream size : 1.08 GiB (14%)
    Title : Original
    Language : English
    Default : No
    Forced : No
    Text #1
    ID : 4
    Format : UTF-8
    Codec ID : S_TEXT/UTF8
    Codec ID/Info : UTF-8 Plain Text
    Title : Full
    Language : Russian
    Default : No
    Forced : No
    Text #2
    ID : 5
    Format : UTF-8
    Codec ID : S_TEXT/UTF8
    Codec ID/Info : UTF-8 Plain Text
    Title : Forced
    Language : English
    Default : No
    Forced : No
    Menu
    00: 00: 00.000 : en: 00: 00: 00.000
    00: 03: 12.025 : en: 00: 03: 12.025
    00: 08: 14.961 : en: 00: 08: 14.961
    00: 15: 43.409 : en: 00: 15: 43.409
    00: 19: 46.986 : en: 00: 19: 46.986
    00: 25: 03.001 : en: 00: 25: 03.001
    00: 34: 26.898 : en: 00: 34: 26.898
    00: 39: 58.029 : en: 00: 39: 58.029
    00: 44: 51.489 : en: 00: 44: 51.489
    00: 48: 31.208 : en: 00: 48: 31.208
    00: 54: 19.223 : en: 00: 54: 19.223
    01: 01: 26.483 : en: 01: 01: 26.483
    01: 04: 47.684 : en: 01: 04: 47.684
    01: 12: 57.506 : en: 01: 12: 57.506
    01: 20: 50.679 : en: 01: 20: 50.679
    01: 27: 22.404 : en: 01: 27: 22.404
    01: 31: 15.270 : en: 01: 31: 15.270
    01: 36: 24.412 : en: 01: 36: 24.412


    Скриншоты для ознакомления




    Онлайн видео Бассейн



    Бассейн/Swimming Pool (2003) BDRip [H.264/1080p]
    загрузка...
    Рейтинг →
     (голосов: 1, оценка 4/5, голосовать можно 1 раз )

    Другие торренты по теме:

  • Бассейн / La piscine (1969) BDRip [H.264] скачать через торрент бесплатно
  • Светлана Филатова | Искусственный пруд, фонтан, бассейн на вашем участке (2012) [PDF]


    • Комментарии (0):

      Информация

      Информация

        Посетители, находящиеся в группе Гости, не могут оставлять комментарии в данной новости.

        ↓ Меню




        ↓ Опрос

        Вы добавили сайт в закладки?
        Да
        Нет


        Top 10 за месяц (Фильмы)