.
Авторизация | Регистрация
Хочешь лучшие торренты? Добавь свой email!
Добавить

Торрент скачать бесплатно

» » Осада Жадовиля / The Siege of Jadotville (2016) WEB-DLRip [H.264 / 1080p-LQ] [VO] торрент скачать бесплатно




    Осада Жадовиля / The Siege of Jadotville (2016) WEB-DLRip [H.264 / 1080p-LQ] [VO] торрент скачать бесплатно

    Опубликовал: Админ | Дата: 15-10-2016, 04:00 | Просмотров: 20

    Производство: Ирландия, ЮАР, Parallel Films
    Жанр: Военный, Драма
    Режиссер: Ричи Смит

    Актеры
    Джейми Дорнан, Марк Стронг, Микаэл Персбрандт, Джейсон О’Мара, Эмманюэль Сенье, Гийом Кане, Майкл МакЭлхаттон, Сэм Кили, Дэнни Сапани, Эми Луиз Уилсон

    Описание

    Фильм по одноименному произведению Деклана Пауэра.
    Фильм расскажет о политическом кризисе в Конго, который охватил страну после провозглашения независимости в 1960 году от Бельгии. Самое интересное в это истории, что об этом Папа Римский ничего не знал. Долгое время эта африканская страна была колонией и управлялась из Европы, и, как только конголезцам дали волю, они устроили у себя на родине дележ власти, переросший в гражданскую войну. В итоге, в 1960 году туда ввели миротворческую миссию ООН, а все бельгийские силы попросили удалиться. Удалились далеко не все, и в 1961 году ирландский батальон, насчитывающий 150 бойцов, попал в осаду трех тысяч французских и бельгийских наемников, работавших на горнодобывающую компанию.

    Релиз от: BadBajo
    Продолжительность: 01: 48: 28
    Качество видео: WEB-DLRip
    Перевод: Одноголосый закадровый (BadBajo)
    Перевел и озвучил: BadBajo
    Субтитры: Русские, английские
    Реклама: Отсутствует
    Видео: AVC/H.264, 1920x800 (2.40: 1), ~6506 Kbps (0.177 bit/pixel)
    Аудио #1: AC3, 6 ch, 640 Kbps | Русский
    Аудио #2: AC3, 6 ch, 640 Kbps | Английский

    Format : Matroska
    Format version : Version 4/Version 2
    File size : 5.90 GiB
    Duration : 1 h 48 min
    Overall bit rate : 7 787 kb/s
    Movie name : The.Siege.of.Jadotville.2016.1080p.WEBRip.DD5.1.x264-SH0W
    Encoded date : UTC 2016-10-13 14: 12: 36
    Writing application : mkvmerge v9.2.0 (\'Photograph\') 64bit
    Writing library : libebml v1.3.3 + libmatroska v1.4.4
    Cover : Yes
    Attachments : cover_land.jpg/small_cover.jpg/small_cover_land.jpg/cover.jpg
    Video
    ID : 1
    Format : AVC
    Format/Info : Advanced Video Codec
    Format profile : High@L4.1
    Format settings, CABAC : Yes
    Format settings, ReFrames : 5 frames
    Codec ID : V_MPEG4/ISO/AVC
    Duration : 1 h 48 min
    Bit rate : 6 506 kb/s
    Width : 1 920 pixels
    Height : 800 pixels
    Display aspect ratio : 2.40: 1
    Frame rate mode : Constant
    Frame rate : 23.976 (24000/1001) FPS
    Color space : YUV
    Chroma subsampling : 4: 2: 0
    Bit depth : 8 bits
    Scan type : Progressive
    Bits/(Pixel*Frame) : 0.177
    Stream size : 4.93 GiB (84%)
    Writing library : x264 core 148 r2721 72d53ab
    Encoding settings : cabac=1/ref=5/deblock=1: -3: -3/analyse=0x3: 0x113/me=hex/subme=8/psy=1/psy_rd=1.00: 0.00/mixed_ref=1/me_range=16/chroma_me=1/trellis=2/8x8dct=1/cqm=0/deadzone=21, 11/fast_pskip=0/chroma_qp_offset=-2/threads=12/lookahead_threads=2/sliced_threads=0/nr=0/decimate=1/interlaced=0/bluray_compat=0/constrained_intra=0/bframes=3/b_pyramid=2/b_adapt=1/b_bias=0/direct=3/weightb=1/open_gop=0/weightp=2/keyint=250/keyint_min=23/scenecut=40/intra_refresh=0/rc_lookahead=50/rc=crf/mbtree=1/crf=17.0/qcomp=0.60/qpmin=0/qpmax=69/qpstep=4/ip_ratio=1.40/aq=3: 0.80
    Language : English
    Default : Yes
    Forced : No
    Audio #1
    ID : 2
    Format : AC-3
    Format/Info : Audio Coding 3
    Mode extension : CM (complete main)
    Format settings, Endianness : Big
    Codec ID : A_AC3
    Duration : 1 h 48 min
    Bit rate mode : Constant
    Bit rate : 640 kb/s
    Channel(s) : 6 channels
    Channel positions : Front: L C R, Side: L R, LFE
    Sampling rate : 48.0 kHz
    Frame rate : 31.250 FPS (1536 spf)
    Compression mode : Lossy
    Stream size : 497 MiB (8%)
    Language : Russian
    Default : Yes
    Forced : Yes
    Audio #2
    ID : 3
    Format : AC-3
    Format/Info : Audio Coding 3
    Mode extension : CM (complete main)
    Format settings, Endianness : Big
    Codec ID : A_AC3
    Duration : 1 h 48 min
    Bit rate mode : Constant
    Bit rate : 640 kb/s
    Channel(s) : 6 channels
    Channel positions : Front: L C R, Side: L R, LFE
    Sampling rate : 48.0 kHz
    Frame rate : 31.250 FPS (1536 spf)
    Compression mode : Lossy
    Stream size : 497 MiB (8%)
    Language : English
    Default : No
    Forced : No
    Text #1
    ID : 4
    Format : UTF-8
    Codec ID : S_TEXT/UTF8
    Codec ID/Info : UTF-8 Plain Text
    Duration : 1 h 42 min
    Bit rate : 77 b/s
    Count of elements : 1124
    Stream size : 57.6 KiB (0%)
    Title : Rus_BadBajo
    Language : Russian
    Default : Yes
    Forced : No
    Text #2
    ID : 5
    Format : UTF-8
    Codec ID : S_TEXT/UTF8
    Codec ID/Info : UTF-8 Plain Text
    Duration : 1 h 46 min
    Bit rate : 51 b/s
    Count of elements : 1337
    Stream size : 40.5 KiB (0%)
    Title : English
    Language : English
    Default : No
    Forced : No


    Скриншоты для ознакомления




    Онлайн видео Осада Жадовиля



    Осада Жадовиля/The Siege of Jadotville (2016) WEB-DLRip [H.264/1080p-LQ] [VO]
    загрузка...
    Рейтинг →
     (голосов: 1, оценка 5/5, голосовать можно 1 раз )

    Другие торренты по теме:

  • Осада Жадовиля / The Siege of Jadotville (2016) WEB-DLRip
  • Осада Жадовиля / The Siege of Jadotville (2016) WEB-DL [H.264 / 1080p-LQ]
  • Осада Жадовиля / The Siege of Jadotville (2016) WEB-DLRip
  • Осада Жадовиля / The Siege of Jadotville (2016) WEB-DLRip [H.264] [VO]
  • Осада Жадовиля / The Siege of Jadotville (2016) WEB-DL [H.264 / 720p-LQ]
  • Осада Жадовиля / The Siege of Jadotville (2016) WEB-DLRip
  • Осада Жадовиля / The Siege of Jadotville (2016) WEB-DL [H.264 / 1080p-LQ]


    • Комментарии (0):

      Информация

      Информация

        Посетители, находящиеся в группе Гости, не могут оставлять комментарии в данной новости.

        ↓ Меню




        ↓ Опрос

        Вы добавили сайт в закладки?
        Да
        Нет


        Top 10 за месяц (Фильмы)