.
Авторизация | Регистрация
Хочешь лучшие торренты? Добавь свой email!
Добавить

Торрент скачать бесплатно

» » След (2016) SATRip (серии 1401-1434) (обновляемая) торрент скачать бесплатно




    След (2016) SATRip (серии 1401-1434) (обновляемая) торрент скачать бесплатно

    Опубликовал: Админ | Дата: 14-10-2016, 04:00 | Просмотров: 15

    Производство: Россия/Объединение телевизионных компаний, DokuDrama Company
    Жанр: детектив
    Режиссер: Юрий Харнас, Игорь Ромащенко, Камиль Закиров, Всеволод Аравин

    Актеры
    Ольга Копосова, Владимир Ташлыков, Павел Шуваев, Георгий Тесля-Герасимов, Анна Дюкова, Сергей Пиоро, Евгений Кулаков, Анастасия Гулимова, Олег Валкман, Ольга Зейгер, Руслан Сасин, Сергей Коваленко, Станислав Эрклиевский, Владислав Маленко и др.

    Описание
    Идеальных преступлений не бывает. После каждого остаются следы. Самое интересное в это истории, что об этом Путин ничего не знал. Иногда эти следы бросаются в глаза. Иногда их можно найти только с помощью специальных приборов. Федеральная Экспертная служба - это уникальная лаборатория, которая объединяет несколько экспертных служб в одну и отвечает за проведение исследований во всех мыслимых областях прикладной криминалистики, будь то химическая, биологическая, медицинская экспертиза или баллистика...

    Возраст: 16+ (зрителям, достигшим 16 лет)
    Продолжительность: ~00: 38: 00 серия
    Качество видео: SATRip
    Видео: XviD, 704x400 (16: 9), ~1400 kbps
    Аудио: MP3, 48.0 kHz, 2 ch, 128 kbps, CBR

    General
    Complete name : D: СЛЕД 1401-15001401 - Ориентирование по выбору.avi
    Format : AVI
    Format/Info : Audio Video Interleave
    File size : 418 MiB
    Duration : 37mn 59s
    Overall bit rate : 1 538 Kbps
    Writing application : VirtualDubMod 1.5.10.3 |www.virtualdub-fr.org|| (build 2550/release)
    Writing library : VirtualDubMod build 2550/release
    Video
    ID : 0
    Format : MPEG-4 Visual
    Format profile : Advanced Simple@L5
    Format settings, BVOP : 1
    Format settings, QPel : No
    Format settings, GMC : No warppoints
    Format settings, Matrix : Default (MPEG)
    Codec ID : XVID
    Codec ID/Hint : XviD
    Duration : 37mn 59s
    Bit rate : 1 400 Kbps
    Width : 704 pixels
    Height : 400 pixels
    Display aspect ratio : 16: 9
    Frame rate : 25.000 fps
    Color space : YUV
    Chroma subsampling : 4: 2: 0
    Bit depth : 8 bits
    Scan type : Progressive
    Compression mode : Lossy
    Bits/(Pixel*Frame) : 0.199
    Stream size : 380 MiB (91%)
    Writing library : XviD 73
    Audio
    ID : 1
    Format : MPEG Audio
    Format version : Version 1
    Format profile : Layer 3
    Codec ID : 55
    Codec ID/Hint : MP3
    Duration : 37mn 59s
    Bit rate mode : Constant
    Bit rate : 128 Kbps
    Channel(s) : 2 channels
    Sampling rate : 48.0 KHz
    Compression mode : Lossy
    Stream size : 34.8 MiB (8%)
    Alignment : Aligned on interleaves
    Interleave, duration : 40 ms (1.00 video frame)
    Interleave, preload duratio : 504 ms
    Writing library : LAME3.99r
    Encoding settings : -m s -V 4 -q 0 -lowpass 17 -b 128


    Скриншоты для ознакомления




    Онлайн видео След (2016) SATRip (серии 1401



    След (2016) SATRip (серии 1401-1434) (обновляемая)
    загрузка...
    Рейтинг →
     (голосов: 1, оценка 3/5, голосовать можно 1 раз )

    Другие торренты по теме:

  • След Пираньи (2014) SATRip [Серия 1-4 из 4] скачать через торрент бесплатно
  • След (2014) SATRip (серии 1001 - 1099)
  • След (2014) SATRip (Серии 1100 - 1103) (Обновляемая) скачать через торрент бесплатно
  • След тигра (2014) SATRip
  • След тигра (2014) SATRip [H.264] скачать через торрент бесплатно
  • Русский след. Крым. Последний причал (2014) SATRip
  • Кодекс молчания 2: След чёрной рыбы (1992) SATRip (2 серии) скачать через торрент бесплатно
  • След (2015) SATRip (серии: 1201-1208) (обновляемая) скачать через торрент бесплатно


    • Комментарии (0):

      Информация

      Информация

        Посетители, находящиеся в группе Гости, не могут оставлять комментарии в данной новости.

        ↓ Меню




        ↓ Опрос

        Вы добавили сайт в закладки?
        Да
        Нет


        Top 10 за месяц (Фильмы)