.
Авторизация | Регистрация
Хочешь лучшие торренты? Добавь свой email!
Добавить

Торрент скачать бесплатно

» » И гаснет свет... / Lights Out (2016) WEB-DL [H.264 / 720p-LQ] торрент скачать бесплатно




    И гаснет свет... / Lights Out (2016) WEB-DL [H.264 / 720p-LQ] торрент скачать бесплатно

    Опубликовал: Админ | Дата: 14-10-2016, 04:00 | Просмотров: 9

    Производство: США, New Line Cinema
    Жанр: Ужасы, Триллер
    Режиссер: Дэвид Ф. Сандберг
    Продюсер: Джеймс Ван, Ричард Бренер, Майкл Клиар

    Актеры
    Тереза Палмер, Гэбриел Бейтман, Александр ДиПерсиа, Билли Бёрк, Мария Белло, Алисия Вела-Бэйли, Энди Ошо, Роландо Бойс, Мария Расселл, Элизабет Пан

    Описание

    Когда Ребекка покинула родной дом, она думала, что её детские страхи остались позади. Ребенком она никогда не была уверена, что реально, а что нет, когда гас свет, и теперь её младший брат Мартин переживает те же необъяснимые и ужасные события, которые когда-то испытывали на прочность её рассудок и угрожали её безопасности. Пугающее нечто, таинственным образом привязанное к их матери Софи, появилось вновь. Но на этот раз Ребекка подбирается к разгадке истины, и уже не остается сомнений в том, что их жизни в опасности, как только будет погашен свет.

    Возраст: 18+ (зрителям, достигшим 18 лет. запрещено для детей)
    Рейтинг MPAA: PG-13 (детям до 13 лет просмотр нежелателен)
    Дата мировой премьеры: 8 июня 2016
    Дата российской премьеры: 21 июля 2016, Каро-Премьер
    Продолжительность: 01: 20: 55
    Качество видео: WEB-DL
    Перевод: Дублированный (iTunes Russia)
    Субтитры: Русский
    Вид субтитров: Вшитые отключаемые
    Видео: 1280x532 at 23.976 fps, MPEG-4 AVC, ~4133 kbps avg
    Aудио#1: Russian: 48 kHz, AC3, 3/2 (L, C, R, l, r) + LFE ch, ~384.00 kbps avg |Дубляж, iTunes Russia|
    Aудио#2: English: 48 kHz, AC3, 3/2 (L, C, R, l, r) + LFE ch, ~384.00 kbps avg
    Aудио#3: English: 44.1 kHz, AAC, 2/0 (L, R) ch, ~124.00 kbps avg |Descriptive|

    General
    Unique ID : 206780497064639173256277226324035271289 (0x9B9079A18B1BC5BB9828E3BB6BA27A79)
    Complete name : D: DownloadsLights.Out.2016.720p.WEB-DL.Rus.Eng.mkv
    Format : Matroska
    Format version : Version 2
    File size : 2.84 GiB
    Duration : 1 h 20 min
    Overall bit rate : 5 027 kb/s
    Movie name : Lights Out (2016)
    Encoded date : UTC 2016-10-11 19: 09: 15
    Writing application : mkvmerge v3.4.0 (\'Rapunzel\') built on May 15 2010 09: 38: 20
    Writing library : libebml v0.8.0 + libmatroska v0.9.0
    Video
    ID : 1
    Format : AVC
    Format/Info : Advanced Video Codec
    Format profile : Main@L3.1
    Format settings, CABAC : No
    Format settings, ReFrames : 2 frames
    Codec ID : V_MPEG4/ISO/AVC
    Duration : 1 h 20 min
    Width : 1 280 pixels
    Height : 532 pixels
    Display aspect ratio : 2.40: 1
    Frame rate mode : Constant
    Frame rate : 23.976 FPS
    Color space : YUV
    Chroma subsampling : 4: 2: 0
    Bit depth : 8 bits
    Scan type : Progressive
    Title : Lights Out (2016)
    Language : English
    Default : Yes
    Forced : No
    Color range : Limited
    Color primaries : BT.709
    Transfer characteristics : BT.709
    Matrix coefficients : BT.709
    Audio #1
    ID : 2
    Format : AC-3
    Format/Info : Audio Coding 3
    Mode extension : CM (complete main)
    Format settings, Endianness : Big
    Codec ID : A_AC3
    Duration : 1 h 20 min
    Bit rate mode : Constant
    Bit rate : 384 kb/s
    Channel(s) : 6 channels
    Channel positions : Front: L C R, Side: L R, LFE
    Sampling rate : 48.0 kHz
    Frame rate : 31.250 FPS (1536 spf)
    Compression mode : Lossy
    Stream size : 222 MiB (8%)
    Title : AC3 5.1 @ 384 kbps - DUB, iTunes
    Language : Russian
    Default : Yes
    Forced : No
    Audio #2
    ID : 3
    Format : AC-3
    Format/Info : Audio Coding 3
    Mode extension : CM (complete main)
    Format settings, Endianness : Big
    Codec ID : A_AC3
    Duration : 1 h 20 min
    Bit rate mode : Constant
    Bit rate : 384 kb/s
    Channel(s) : 6 channels
    Channel positions : Front: L C R, Side: L R, LFE
    Sampling rate : 48.0 kHz
    Frame rate : 31.250 FPS (1536 spf)
    Compression mode : Lossy
    Stream size : 222 MiB (8%)
    Title : AC3 5.1 @ 384 kbps
    Language : English
    Default : No
    Forced : No
    Audio #3
    ID : 4
    Format : AAC
    Format/Info : Advanced Audio Codec
    Format profile : HE-AAC/LC
    Codec ID : A_AAC
    Duration : 1 h 20 min
    Channel(s) : 2 channels
    Channel positions : Front: L R
    Sampling rate : 88.2 kHz/44.1 kHz
    Frame rate : 43.066 FPS (1024 spf)
    Compression mode : Lossy
    Title : AAC 2.0 @ 128 kbps - Descriptive
    Language : English
    Default : No
    Forced : No
    Text #1
    ID : 5
    Format : UTF-8
    Codec ID : S_TEXT/UTF8
    Codec ID/Info : UTF-8 Plain Text
    Title : Forced, iTunes
    Language : Russian
    Default : Yes
    Forced : No
    Text #2
    ID : 6
    Format : UTF-8
    Codec ID : S_TEXT/UTF8
    Codec ID/Info : UTF-8 Plain Text
    Title : iTunes
    Language : Russian
    Default : No
    Forced : No
    Menu
    00: 00: 00.000 : en: 1
    00: 10: 01.000 : en: 2
    00: 21: 07.000 : en: 3
    00: 30: 12.000 : en: 4
    00: 40: 57.000 : en: 5
    00: 50: 38.000 : en: 6
    00: 58: 43.000 : en: 7
    01: 09: 54.000 : en: 8
    01: 16: 20.000 : en: 9

    File: D: DownloadsLights.Out.2016.720p.WEB-DL.Rus.EngLights.Out.2016.720p.WEB-DL.Rus.Eng.mkv
    Duration: 01: 20: 55 (4855.25)
    Track #1: default video (Lights Out (2016)
    lang: eng (4)
    codc: V_MPEG4/ISO/AVC - H264/AVC (22)
    reso: 1280x532 - Unknown (aka not common)
    fram: 23.976 fps
    rate: 4133 kbps (4133.18)
    dura: 01: 20: 55 (4855.15)
    size: 2.34 GB (2508401548)
    Track #2: default audio (AC3 5.1 @ 384 kbps - DUB, iTunes)
    lang: rus - Russian (15)
    codc: A_AC3 - AC3 (2)
    chan: 6 - 5.1 Surround
    samp: 48000 Hz
    rate: 384 kbps (384.04)
    dura: 01: 20: 55 (4855.14)
    size: 222.27 MB (233069082)
    Track #3: audio (AC3 5.1 @ 384 kbps)
    lang: eng - English (4)
    codc: A_AC3 - AC3 (2)
    chan: 6 - 5.1 Surround
    samp: 48000 Hz
    rate: 384 kbps (384.03)
    dura: 01: 20: 55 (4855.14)
    size: 222.27 MB (233067544)
    Track #4: audio (AAC 2.0 @ 128 kbps - Descriptive)
    lang: eng - English (4)
    codc: A_AAC - AAC (9)
    chan: 2 - Stereo
    samp: 44100 Hz
    rate: 124 kbps (123.54)
    dura: 01: 20: 55 (4855.11)
    size: 71.50 MB (74974026)
    Track #5: default subtitles (Forced, iTunes)
    lang: rus - Russian (15)
    type: S_TEXT/UTF8 - SRT (3)
    size: 710.00 B (710)
    Track #6: subtitles (iTunes)
    lang: rus - Russian (15)
    type: S_TEXT/UTF8 - SRT (3)
    size: 31.23 KB (31978)
    Sizes: (check sanity)
    disk: 2.84 GB (3051009510)
    trac: 2.84 GB (3049544888) based on track size
    bitr: 2.84 GB (3049513842) based on bitrate
    tdif: 1.40 MB (1464622) 0.04%
    bdif: 1.43 MB (1495667) 0.04%


    Скриншоты для ознакомления




    Онлайн видео И гаснет свет...



    И гаснет свет.../Lights Out (2016) WEB-DL [H.264/720p-LQ]
    загрузка...
    Рейтинг →
     (голосов: 1, оценка 3/5, голосовать можно 1 раз )

    Другие торренты по теме:

  • И гаснет свет... / Lights Out (2016) TS
  • И гаснет свет... / Lights Out (2016) WEB-DL [H.264 / 1080p-LQ] [Line]
  • И гаснет свет... / Lights Out (2016) WEB-DLRip [Line]
  • И гаснет свет... / Lights Out (2016) WEB-DL [H.264 / 1080p-LQ] [Line]
  • И гаснет свет... / Lights Out (2016) AC3 5.1 [hand made]
  • И гаснет свет... / Lights Out (2016) WEB-DL [H.264 / 1080p-LQ] [EN]
  • И гаснет свет... / Lights Out (2016) HDRip [H.264]
  • И гаснет свет... / Lights Out (2016) WEB-DLRip


    • Комментарии (0):

      Информация

      Информация

        Посетители, находящиеся в группе Гости, не могут оставлять комментарии в данной новости.

        ↓ Меню




        ↓ Опрос

        Вы добавили сайт в закладки?
        Да
        Нет


        Top 10 за месяц (Фильмы)