.
Авторизация | Регистрация
Хочешь лучшие торренты? Добавь свой email!
Добавить

Торрент скачать бесплатно

» » Ван Хельсинг / Van Helsing (2016) WEB-DL [H.264 / 1080p-LQ] (сезон 1, серии 1-4 из 13) BaibaKo (обновляемая) торрент скачать бесплатно




    Ван Хельсинг / Van Helsing (2016) WEB-DL [H.264 / 1080p-LQ] (сезон 1, серии 1-4 из 13) BaibaKo (обновляемая) торрент скачать бесплатно

    Опубликовал: Админ | Дата: 10-10-2016, 04:01 | Просмотров: 22

    Производство: США
    Жанр: фэнтези, боевик, драма
    Режиссер: Майкл Нанкин, Саймон Бэрри, Дэвид Фрэйзи

    Актеры
    Келли Овертон, Джонатан Скарф, Кристофер Хейердал, Рукия Бернард, Дэвид Кабитт, Винсент Гэйл, Хилари Джардин, Оливер Махоро Смит, Алекс Паунович, Элисон Вандзура и др.

    Описание

    Главным героем сериала Ван Хельсинг является Ванесса Хельсинг — дочка известного охотника на вурдалаков и непримиримого противника Дракулы — Абрахама Ван Хельсинга. Самое интересное в это истории, что об этом Путин ничего не знал. Основная героиня оживает через 5 лет и оказывается в обществе, порабощенном вурдалаками. Ванесса выявляет в себе исключительную силу над вурдалаками и превращается в того человека, который сплотит народ, чтобы восстановить потерянный мир...

    Продолжительность: ~ 00: 43: 00 серия
    Качество видео: WEB-DL
    Перевод: Многоголосый закадровый, профессиональный -BaibaKo
    Озвучка/Автор перевода: Лира Грим, Ольга Мотрич, Артёмий Мирон и Владимир Курдов/Ольга Пашкова
    Реклама: присутствуют голосовые и текстовые вставки рекламы
    Видео: AVC/H.264, 1920x1080 (16: 9), ~4915 Кбит/сек
    Аудио #1 Rus: AC3, 6 каналов, 384 Кбит/сек - (многоголосый закадровый)
    Аудио #2 Eng: AC3, 6 каналов, 384 Кбит/сек - (оригинал)
    Код: выделить все

    Полное имя : F:Van_Helsing_s1_WEB-DL1080p_BaibaKo_[NNMClub]Van.Helsing.s01e01.HD1080p.WEB-DL.Rus.Eng.BaibaKo.tv.mkv
    Формат : Matroska
    Версия формата : Version 4/Version 2
    Размер файла : 1, 78 Гбайт
    Продолжительность : 44 м.
    Общий поток : 5799 Кбит/сек
    Дата кодирования : UTC 2016-10-09 02:43:33
    Программа кодирования : mkvmerge v6.8.0 (\'Theme for Great Cities\') 64bit built on Mar 2 2014 21:34:26
    Библиотека кодирования : libebml v1.3.0 + libmatroska v1.4.1
    Видео
    Идентификатор : 1
    Формат : AVC
    Формат/Информация : Advanced Video Codec
    Профиль формата : High@L4
    Параметр CABAC формата : Да
    Параметр ReFrames формата : 4 кадра
    Идентификатор кодека : V_MPEG4/ISO/AVC
    Продолжительность : 44 м.
    Битрейт : 4915 Кбит/сек
    Ширина : 1920 пикселей
    Высота : 1080 пикселей
    Соотношение сторон : 16:9
    Режим частоты кадров : Постоянный
    Частота кадров : 23, 976 кадра/сек
    Цветовое пространство : YUV
    Субдискретизация насыщенности : 4:2:0
    Битовая глубина : 8 бит
    Тип развёртки : Прогрессивная
    Бит/(Пиксели*Кадры) : 0.099
    Размер потока : 1, 51 Гбайт (85%)
    Default : Нет
    Forced : Нет
    Цветовой диапазон : Limited
    Основные цвета : BT.709
    Характеристики трансфера : BT.709
    Коэффициенты матрицы : BT.709
    Аудио #1
    Идентификатор : 2
    Формат : AC-3
    Формат/Информация : Audio Coding 3
    Расширение режима : CM (complete main)
    Параметр Endianness формата : Big
    Идентификатор кодека : A_AC3
    Продолжительность : 44 м.
    Вид битрейта : Постоянный
    Битрейт : 384 Кбит/сек
    Каналы : 6 каналов
    Расположение каналов : Front: L C R, Side: L R, LFE
    Частота : 48, 0 КГц
    Частота кадров : 31, 250 кадров/сек (1536 spf)
    Метод сжатия : С потерями
    Задержка видео : 23 мс.
    Размер потока : 121 Мбайт (7%)
    Язык : Russian
    Default : Да
    Forced : Нет
    Аудио #2
    Идентификатор : 3
    Формат : AC-3
    Формат/Информация : Audio Coding 3
    Расширение режима : CM (complete main)
    Параметр Endianness формата : Big
    Идентификатор кодека : A_AC3
    Продолжительность : 44 м.
    Вид битрейта : Постоянный
    Битрейт : 384 Кбит/сек
    Каналы : 6 каналов
    Расположение каналов : Front: L C R, Side: L R, LFE
    Частота : 48, 0 КГц
    Частота кадров : 31, 250 кадров/сек (1536 spf)
    Метод сжатия : С потерями
    Размер потока : 121 Мбайт (7%)
    Язык : English
    Default : Нет
    Forced : Нет


    Скриншоты для ознакомления




    Онлайн видео Ван Хельсинг



    Ван Хельсинг/Van Helsing (2016) WEB-DL [H.264/1080p-LQ] (сезон 1, серии 1-4 из 13) BaibaKo (обновляемая)
    загрузка...
    Рейтинг →
     (голосов: 1, оценка 3/5, голосовать можно 1 раз )

    Другие торренты по теме:

  • Ван Хельсинг / Van Helsing (2004) BDRip [H.264 / 720р-LQ]
  • Ван Хельсинг / Van Helsing (2004) BDRip скачать через торрент бесплатно
  • Ван Хельсинг: Лондонское задание / Van Helsing: The London Assignment (2004) AC3 5.1 [Solod]
  • Ван Хельсинг / Van Helsing (2004) AC3 5.1 [Solod]
  • Ван Хельсинг / Van Helsing (2016) HDTVRip [H.264 / 720p-LQ] (сезон 1, серии 1 из 13) OmskBird (обновляемая)
  • Ван Хельсинг / Van Helsing (2016) HDTVRip (сезон 1, серии 1 из 13) OmskBird (обновляемая)
  • Ван Хельсинг / Van Helsing (2016) WEB-DLRip (сезон 1, серии 1 из 13) LostFilm (обновляемая)
  • Ван Хельсинг / Van Helsing (2016) WEB-DL [H.264 / 720p-LQ] (сезон 1, серии 1 из 13) BaibaKo (обновляемая)


    • Комментарии (0):

      Информация

      Информация

        Посетители, находящиеся в группе Гости, не могут оставлять комментарии в данной новости.

        ↓ Меню




        ↓ Опрос

        Вы добавили сайт в закладки?
        Да
        Нет


        Top 10 за месяц (Фильмы)