.
Авторизация | Регистрация
Хочешь лучшие торренты? Добавь свой email!
Добавить

Торрент скачать бесплатно

» » Радиоволна / Frequency (2016) WEB-DLRip (сезон 1, серии 1 из 10) OmskBird (обновляемая) торрент скачать бесплатно




    Радиоволна / Frequency (2016) WEB-DLRip (сезон 1, серии 1 из 10) OmskBird (обновляемая) торрент скачать бесплатно

    Опубликовал: Админ | Дата: 9-10-2016, 04:02 | Просмотров: 16

    Производство: США
    Жанр: детектив, фантастика, драма
    Режиссер: Брэд Андерсон, Джон Т. Кречмер

    Актеры
    Пейтон Лист, Дэниэл Бонжур, Ленни Джейкобсон, Девин Келли, Мехи Файфер, Райли Смит, Гаретт Баллок, Винсент Дэнгерфилд, Татьяна Форрест и др.

    Описание

    Главная героиня мистического триллера Frequency - женщина-детектив. Трудностей и заморочек ей хватает и по работе. Но её жизнь ещё больше осложняется и запутывается, когда она обнаруживает, что может общаться с отцом посредством обычного радио. Вот только он умер ещё в 1996-м году, а сейчас на дворе 2016-й. Они вступают в новые необычные отношения и начинают совместно работать над расследованием нераскрытого убийства. Связь с прошлым не проходит без последствий – эффект бабочки начинает вносить хаос в современность.

    Дата мировой премьеры: 5 октября 2016
    Релиз от: OmskBird
    Продолжительность: ~ 00: 43: 00 серия
    Качество видео: WEB-DLRip
    Перевод: Многоголосый закадровый, профессиональный - OmskBird
    Реклама: присутствуют аудио вставки рекламы
    Видео: XviD, 720x400 (16: 9), ~2017 kbps
    Аудио # rus: AC3, 6 ch, 384 kbps, CBR - многоголосый закадровый
    Аудио # eng: AC3, 6 ch, 384 kbps, CBR - оригинал
    Код:

    General
    Complete name : G:FilmsFrequency.S01.WEB-DLRipFrequency.S01E01.400p.WEB-DLRip.OmskBird.avi
    Format : AVI
    Format/Info : Audio Video Interleave
    File size : 850 MiB
    Duration : 42mn 26s
    Overall bit rate : 2 800 Kbps
    Writing application : VirtualDubMod 1.5.10.3 (build 2550/release)
    Writing library : VirtualDubMod build 2550/release
    Video
    ID : 0
    Format : MPEG-4 Visual
    Format profile : Advanced Simple@L5
    Format settings, BVOP : 1
    Format settings, QPel : No
    Format settings, GMC : No warppoints
    Format settings, Matrix : Default (MPEG)
    Codec ID : XVID
    Codec ID/Hint : XviD
    Duration : 42mn 26s
    Bit rate : 2 018 Kbps
    Width : 720 pixels
    Height : 400 pixels
    Display aspect ratio : 16:9
    Frame rate : 23.976 (23976/1000) fps
    Color space : YUV
    Chroma subsampling : 4:2:0
    Bit depth : 8 bits
    Scan type : Progressive
    Compression mode : Lossy
    Bits/(Pixel*Frame) : 0.292
    Stream size : 613 MiB (72%)
    Writing library : XviD 73
    Audio #1
    ID : 1
    Format : AC-3
    Format/Info : Audio Coding 3
    Mode extension : CM (complete main)
    Format settings, Endianness : Big
    Codec ID : 2000
    Duration : 42mn 26s
    Bit rate mode : Constant
    Bit rate : 384 Kbps
    Channel(s) : 6 channels
    Channel positions : Front: L C R, Side: L R, LFE
    Sampling rate : 48.0 KHz
    Frame rate : 31.250 fps (1536 spf)
    Compression mode : Lossy
    Stream size : 117 MiB (14%)
    Alignment : Split accross interleaves
    Interleave, duration : 42 ms (1.00 video frame)
    Interleave, preload duration : 500 ms
    Audio #2
    ID : 2
    Format : AC-3
    Format/Info : Audio Coding 3
    Mode extension : CM (complete main)
    Format settings, Endianness : Big
    Codec ID : 2000
    Duration : 42mn 26s
    Bit rate mode : Constant
    Bit rate : 384 Kbps
    Channel(s) : 6 channels
    Channel positions : Front: L C R, Side: L R, LFE
    Sampling rate : 48.0 KHz
    Frame rate : 31.250 fps (1536 spf)
    Compression mode : Lossy
    Stream size : 117 MiB (14%)
    Alignment : Split accross interleaves
    Interleave, duration : 42 ms (1.00 video frame)
    Interleave, preload duration : 500 ms


    Скриншоты для ознакомления




    Онлайн видео Радиоволна



    Радиоволна/Frequency (2016) WEB-DLRip (сезон 1, серии 1 из 10) OmskBird (обновляемая)
    загрузка...
    Рейтинг →
     (голосов: 1, оценка 4/5, голосовать можно 1 раз )

    Другие торренты по теме:

  • Радиоволна / Frequency (2016) WEB-DL [H.264 / 720p-LQ] (сезон 1, серии 1 из 10) OmskBird (обновляемая)
  • Радиоволна / Frequency (2016) WEB-DL [H.264 / 1080p-LQ] (сезон 1, серии 1-2 из 10) NewStudio (обновляемая)
  • Радиоволна / Frequency (2016) WEB-DLRip (сезон 1, серии 1 из 10) LostFilm (обновляемая)
  • Радиоволна / Frequency (2016) WEB-DL [H.264 / 1080p-LQ] (сезон 1, серии 1 из 10) LostFilm (обновляемая)
  • Радиоволна / Frequency (2016) WEB-DLRip (сезон 1, серии 1-2 из 10) NewStudio (обновляемая)
  • Радиоволна / Frequency (2016) WEB-DL [H.264] (сезон 1, серии 1-5 из 10) LostFilm [MP4|1280x718]
  • Радиоволна / Frequency (2016) WEBRip [H.264 / 1080p-LQ] (сезон 1, серии 1-4 из 10) AlexFilm, Lostfilm, Кравец, NewStudio, OmskBird (обновляемая)
  • Радиоволна / Frequency (2016) WEB-DLRip (сезон 1, серии 1-13 из 13 + эпилог) OmskBird


    • Комментарии (0):

      Информация

      Информация

        Посетители, находящиеся в группе Гости, не могут оставлять комментарии в данной новости.

        ↓ Меню




        ↓ Опрос

        Вы добавили сайт в закладки?
        Да
        Нет


        Top 10 за месяц (Фильмы)