.
Авторизация | Регистрация
Хочешь лучшие торренты? Добавь свой email!
Добавить

Торрент скачать бесплатно

» » Никто не вечен / Nobody Lives Forever (1946) DVDRip торрент скачать бесплатно




    Никто не вечен / Nobody Lives Forever (1946) DVDRip торрент скачать бесплатно

    Опубликовал: Админ | Дата: 9-10-2016, 04:00 | Просмотров: 6

    Производство: США, Warner Bros. Pictures
    Жанр: фильм-нуар, Криминал
    Режиссер: Жан Негулеско

    Актеры
    Джон Гарфилд, Джеральдин Фицджералд, Уолтер Бреннан, Фэй Эмерсон, Джордж Кулурис, Джордж Тобиаш, Роберт Шэйн, Ричард Гейнс, Ричард Эрдман, Джеймс Флавин

    Описание

    Мошенник Ник Блейк честно отслужил в армии на Второй мировой войне. После демобилизации Ник отправляется на отдых в Калифорнию, где его втягивают в аферу с целью заполучить деньги молодой богатой вдовы Глэдис Хэлверсон. Однако Ник и Глэдис влюбляются друг в друга, и в итоге Ник оказывается перед выбором - довести свой первоначальный план до конца или отказаться от него, сознаться в своём обмане и противопоставить себя своим подельникам.

    Продолжительность: 01: 39: 46
    Качество видео: DVDRip
    Перевод: Одноголосый закадровый
    Видео: DivX 5, 640x480, ~1888 Kbps
    Аудио1: AC3, 2 ch, 192 Kbps, CBR - русский
    Аудио2: AC3, 2 ch, 192 Kbps, CBR -английский
    Код:

    Общее
    Полное имя : U:Никто не вечен (1946) DVDRip.avi
    Формат : AVI
    Формат/Информация : Audio Video Interleave
    Размер файла : 1, 59 Гбайт
    Продолжительность : 1 ч. 39 м.
    Общий поток : 2286 Кбит/сек
    Программа кодирования : VirtualDubMod 1.5.4.1 (build 2178/release)
    Библиотека кодирования : VirtualDubMod build 2178/release
    Видео
    Идентификатор : 0
    Формат : MPEG-4 Visual
    Профиль формата : Advanced Simple@L5
    Параметр BVOP формата : 2
    Параметр QPel формата : Нет
    Параметр GMC формата : Без точки перехода
    Параметр матрицы формата : Default (H.263)
    Идентификатор кодека : DX50
    Идентификатор кодека/Подсказка : DivX 5
    Продолжительность : 1 ч. 39 м.
    Битрейт : 1888 Кбит/сек
    Ширина : 640 пикселей
    Высота : 480 пикселей
    Соотношение сторон : 4:3
    Частота кадров : 23, 976 (24000/1001) кадра/сек
    Цветовое пространство : YUV
    Субдискретизация насыщенности : 4:2:0
    Битовая глубина : 8 бит
    Тип развёртки : Прогрессивная
    Метод сжатия : С потерями
    Бит/(Пиксели*Кадры) : 0.256
    Размер потока : 1, 32 Гбайт (83%)
    Библиотека кодирования : XviD 73
    Аудио #1
    Идентификатор : 1
    Формат : AC-3
    Формат/Информация : Audio Coding 3
    Расширение режима : CM (complete main)
    Параметр Endianness формата : Big
    Идентификатор кодека : 2000
    Продолжительность : 1 ч. 39 м.
    Вид битрейта : Постоянный
    Битрейт : 192 Кбит/сек
    Каналы : 2 канала
    Расположение каналов : Front: L R
    Частота : 48, 0 КГц
    Частота кадров : 31, 250 кадров/сек (1536 spf)
    Метод сжатия : С потерями
    Размер потока : 137 Мбайт (8%)
    Выравнивание : Разделение по промежуткам
    Продолжительность промежутка : 42 мс. (1, 00 видеокадр)
    Время предзагрузки промежутка : 500 мс.
    Аудио #2
    Идентификатор : 2
    Формат : AC-3
    Формат/Информация : Audio Coding 3
    Расширение режима : CM (complete main)
    Параметр Endianness формата : Big
    Идентификатор кодека : 2000
    Продолжительность : 1 ч. 39 м.
    Вид битрейта : Постоянный
    Битрейт : 192 Кбит/сек
    Каналы : 2 канала
    Расположение каналов : Front: L R
    Частота : 48, 0 КГц
    Частота кадров : 31, 250 кадров/сек (1536 spf)
    Метод сжатия : С потерями
    Размер потока : 137 Мбайт (8%)
    Выравнивание : Разделение по промежуткам
    Продолжительность промежутка : 42 мс. (1, 00 видеокадр)
    Время предзагрузки промежутка : 500 мс.


    Скриншоты для ознакомления




    Онлайн видео Никто не вечен



    Никто не вечен/Nobody Lives Forever (1946) DVDRip
    загрузка...
    Рейтинг →
     (голосов: 1, оценка 3/5, голосовать можно 1 раз )

    Другие торренты по теме:

  • Происшествие, которого никто не заметил (1967) TVRip скачать через торрент бесплатно
  • Вячеслав Добрынин - Никто тебя не любит так, как я (1994) [APE|Lossless]<Pop>
  • Никто не хотел умирать (1965) DVDRip [H.264] скачать через торрент бесплатно
  • Господин Никто / Mr. Nobody (2009) BDRip [720p] [Extended Cut] скачать через торрент бесплатно
  • Военная приемка. ВДВ. Никто, кроме них (2015) HDTVRip [720p-LQ] скачать через торрент бесплатно
  • Меня зовут Никто / Il mio nome е Nessuno (1973) BDRip [H.264 / 720р-LQ] скачать через торрент бесплатно
  • Меня зовут Никто / Il mio nome е Nessuno (1973) BDRemux [H.264 / 1080p]
  • Тина Силиг | Почему никто не рассказал мне это в 20 Интенсив по поиску себя в этом мире (2016) [EPUB]


    • Комментарии (0):

      Информация

      Информация

        Посетители, находящиеся в группе Гости, не могут оставлять комментарии в данной новости.

        ↓ Меню




        ↓ Опрос

        Вы добавили сайт в закладки?
        Да
        Нет


        Top 10 за месяц (Фильмы)