.
Авторизация | Регистрация
Хочешь лучшие торренты? Добавь свой email!
Добавить

Торрент скачать бесплатно

» » Однажды в сказке / В Некотором Царстве / Once Upon a Time (2016-2017) WEB-DL [H.264 / 1080p-LQ] (сезон 6, серия 1 из 23) Невафильм (обновляемая) торрент скачать бесплатно




    Однажды в сказке / В Некотором Царстве / Once Upon a Time (2016-2017) WEB-DL [H.264 / 1080p-LQ] (сезон 6, серия 1 из 23) Невафильм (обновляемая) торрент скачать бесплатно

    Опубликовал: Админ | Дата: 7-10-2016, 04:00 | Просмотров: 27

    Производство: США
    Жанр: фэнтези, мелодрама, приключения
    Режиссер: Эгил Эгилссон, Рон Андервуд, Норман Бакли

    Актеры
    Джиннифер Гудвин, Дженнифер Моррисон, Роберт Карлайл, Лана Паррия, Джаред Гилмор, Колин О`Донохью, Джошуа Даллас, Эмили де Рэвин, Ли Аренберг, Хэнк Харрис и др.

    Описание

    Сюжет сериала разворачивается в двух мирах — современном и сказочном. Самое интересное в это истории, что об этом Супермен ничего не знал. В шестом сезон любимого сериалае нас ожидает встреча с Аладином, Джафаром, Жасмин, графом Монте-Кристо, мифологическим богом Морфеем и другими удивительными героями. Эмме, Капитану Крюку, Белоснежке, Прекрасному Принцу, Реджине, Генри и другим сторибрукцам придется столкнуться, как с жителями Края Нерассказанных историй, прибывших в город вслед за мистером Хайдом, так и со второй злой половиной Реджины, которая объявила войну Сторибруку. А кроме того Эмме придется узнать, что это такое – быть Спасителем и какова цена, которую он должен заплатить...

    Возраст: 12+ (зрителям, достигшим 12 лет)
    Релиз от: drrjan
    Продолжительность: ~00: 43: 00 серия
    Качество видео: WEB-DL
    Перевод: Дублированный - Невафильм
    Вид субтитров: вшитые отключаемые
    Язык субтитров: русский, английский
    Видео: H.264/AVC, 1920x1080 (16: 9), ~ 5073 Кбит/с
    Аудио 1 Rus: AC3, 2 канала , 192 Кбит/с | дублированный
    Аудио 2 Eng: AC3, 6 каналов, 384 Кбит/с | оригинал
    Код:

    Общее
    Уникальный идентификатор : 174731774854522393722275609987153717669 (0x83741DA152618D41827841A74A80E9A5)
    Полное имя : D:Once.Upon.a.Time.S06.1080p.WEB-DLOnce.Upon.a.Time.S06E01.The.Savior.1080p.WEB-DL.Rus.Eng.mkv
    Формат : Matroska
    Версия формата : Version 4/Version 2
    Размер файла : 1, 73 Гбайт
    Продолжительность : 43 м.
    Общий поток : 5763 Кбит/сек
    Дата кодирования : UTC 2016-10-05 01:44:11
    Программа кодирования : mkvmerge v7.5.0 (\'Glass Culture\') 64bit built on Jan 4 2015 16:48:44
    Библиотека кодирования : libebml v1.3.1 + libmatroska v1.4.2
    Attachements : small_cover.jpg/cover.jpg/cover_land.jpg/small_cover_land.jpg
    DURATION : 00:42:15.910000000
    NUMBER_OF_FRAMES : 623
    NUMBER_OF_BYTES : 26728
    _STATISTICS_WRITING_APP : mkvmerge v7.5.0 (\'Glass Culture\') 64bit built on Jan 4 2015 16:48:44
    _STATISTICS_WRITING_DATE_UTC : 2016-10-05 01:44:11
    _STATISTICS_TAGS : BPS DURATION NUMBER_OF_FRAMES NUMBER_OF_BYTES
    Видео
    Идентификатор : 1
    Формат : AVC
    Формат/Информация : Advanced Video Codec
    Профиль формата :High@L4.0
    Параметр CABAC формата : Да
    Параметр ReFrames формата : 4 кадра
    Идентификатор кодека : V_MPEG4/ISO/AVC
    Продолжительность : 43 м.
    Битрейт : 5073 Кбит/сек
    Ширина : 1920 пикселей
    Высота : 1080 пикселей
    Соотношение сторон : 16:9
    Режим частоты кадров : Постоянный
    Частота кадров : 23, 976 кадра/сек
    Цветовое пространство : YUV
    Субдискретизация насыщенности : 4:2:0
    Битовая глубина : 8 бит
    Тип развёртки : Прогрессивная
    Бит/(Пиксели*Кадры) : 0.102
    Размер потока : 1, 53 Гбайт (88%)
    Default : Да
    Forced : Нет
    Основные цвета : BT.709
    Характеристики трансфера : BT.709
    Коэффициенты матрицы : BT.709
    colour_range : Limited
    Аудио #1
    Идентификатор : 2
    Формат : AC-3
    Формат/Информация : Audio Coding 3
    Расширение режима : CM (complete main)
    Параметр Endianness формата : Big
    Идентификатор кодека : A_AC3
    Продолжительность : 43 м.
    Вид битрейта : Постоянный
    Битрейт : 192 Кбит/сек
    Каналы : 2 канала
    Расположение каналов : Front: L R
    Частота : 48, 0 КГц
    Битовая глубина : 16 бит
    Метод сжатия : С потерями
    Размер потока : 59, 1 Мбайт (3%)
    Заголовок : Невафильм
    Язык : Russian
    Default : Да
    Forced : Нет
    Аудио #2
    Идентификатор : 3
    Формат : AC-3
    Формат/Информация : Audio Coding 3
    Расширение режима : CM (complete main)
    Параметр Endianness формата : Big
    Идентификатор кодека : A_AC3
    Продолжительность : 43 м.
    Вид битрейта : Постоянный
    Битрейт : 384 Кбит/сек
    Каналы : 6 каналов
    Расположение каналов : Front: L C R, Side: L R, LFE
    Частота : 48, 0 КГц
    Битовая глубина : 16 бит
    Метод сжатия : С потерями
    Размер потока : 118 Мбайт (7%)
    Язык : English
    Default : Нет
    Forced : Нет
    Текст #1
    Идентификатор : 4
    Формат : UTF-8
    Идентификатор кодека : S_TEXT/UTF8
    Идентификатор кодека/Информация : UTF-8 Plain Text
    Заголовок : Невафильм
    Язык : Russian
    Default : Нет
    Forced : Нет
    Текст #2
    Идентификатор : 5
    Формат : UTF-8
    Идентификатор кодека : S_TEXT/UTF8
    Идентификатор кодека/Информация : UTF-8 Plain Text
    Язык : English
    Default : Нет
    Forced : Нет


    Скриншоты для ознакомления




    Онлайн видео Однажды в сказке



    Однажды в сказке/В Некотором Царстве/Once Upon a Time (2016-2017) WEB-DL [H.264/1080p-LQ] (сезон 6, серия 1 из 23) Невафильм (обновляемая)
    загрузка...
    Рейтинг →
     (голосов: 1, оценка 3/5, голосовать можно 1 раз )

    Другие торренты по теме:

  • Однажды в сказке / В Некотором Царстве / Once Upon A Time (2014) HDTVRip [сезон 4, серия 1 из ] LevshaFilm
  • Однажды в Сказке / В Некотором Царстве / Once Upon a Time (2013) WEB-DLRip [сезон 4, серии 1 из ] To4ka (обновляемая) скачать через торрент бесплатно
  • Однажды в сказке / В Некотором Царстве / Once Upon a Time (2014) WEB-DLRip (сезон 4, серии 1-2 из ) Невафильм (oбновляемая)
  • Однажды в сказке / В Некотором Царстве / Once Upon a Time (2014) WEB-DL [H.264 / 1080p-LQ] (Сезон 4, серии 1-2 из 23) (Невафильм) (обновляемая) скачать через торрент бесплатно
  • Однажды в сказке / В Некотором Царстве / Once Upon a Time (2014) WEB-DL [H.264 / 720p-LQ] (Сезон 4, серии 1-2 из 23) (Невафильм) (обновляемая) скачать через торрент бесплатно
  • Однажды в сказке / В Некотором Царстве / Once Upon a Time (2014) WEB-DLRip (Сезон 4, серии 1-9 из 23) (Кубик в Кубе) (обновляемая)
  • Однажды в сказке / В Некотором Царстве / Once Upon a Time (2014) WEB-DL [H.264 / 720p-LQ] (Сезон 4, серии 1-9 из 23) (Кубик в Кубе) (обновляемая)
  • Однажды в сказке / Once Upon A Time (2011) WEB-DLRip (сезон 1-4, серии 1-78 из 89) (Невафильм) (обновляемая) скачать через торрент бесплатно


    • Комментарии (0):

      Информация

      Информация

        Посетители, находящиеся в группе Гости, не могут оставлять комментарии в данной новости.

        ↓ Меню




        ↓ Опрос

        Вы добавили сайт в закладки?
        Да
        Нет


        Top 10 за месяц (Фильмы)