.
Авторизация | Регистрация
Хочешь лучшие торренты? Добавь свой email!
Добавить

Торрент скачать бесплатно

» » Крах / Падение / The Fall (2016) WEB-DLRip (сезон 3, серии 1 из 6) LostFilm (обновляемая) торрент скачать бесплатно




    Крах / Падение / The Fall (2016) WEB-DLRip (сезон 3, серии 1 из 6) LostFilm (обновляемая) торрент скачать бесплатно

    Опубликовал: Админ | Дата: 5-10-2016, 16:23 | Просмотров: 25

    Производство: Великобритания/Artists Studio, BBC Northern Ireland
    Жанр: триллер, драма, криминал
    Режиссер: Аллан Кабитт, Якоб Вербрюгген

    Актеры
    Джиллиан Андерсон, Джейми Дорнан, Брона Во, Джон Линч, Ниам МакГрэйди, Стюарт Грэхэм, Герард МакКарти, Йен МакЭлхинни, Юджин О’Харе, Лаура Доннелли и др.

    Описание

    Третий сезон любимого сериала психологического триллера от телеканала BBC Twо, который моментально привлек внимание зрителей. Это произошло не только благодаря звезде Секретных материалов (The X Files) Джиллиан Андерсон, исполнившей роль высококлассного детектива Стеллы Гибсон, но и за счет убедительного образа главного злодея, маньяка-душителя Пола Спектора (Джейми Дорнан). Главной особенностью шоу является напряженное параллельное повествование, в котором каждый аспект жизни преступника, каждый его шаг находит отражение в быту и профессиональной деятельности женщины, открывшей на него охоту. Все это в сочетании с северным колоритом и есть не что иное искусным монтажом делает Падение одним из самых изысканных, интригующих и эффектных британских триллеров на современном ТВ.

    Продолжительность: ~00: 59: 00 серия
    Качество видео: WEB-DLRip
    Перевод: Многоголосый закадровый, профессиональный -LostFilm
    Видео: XviD, 720x400 (16: 9), ~1500 kbps
    Аудио Rus: MP3, 48, 0 kHz, 2 ch, 128 kbps — многоголосый закадровый
    Аудио Eng: MP3, 48, 0 kHz, 2 ch, 128 kbps — оригинал
    Код:

    Общее
    Полное имя : D:Крах (сезон любимого сериала 3) The Fall (2016) WEB-DLRip - LostFilmThe.Fall.S03E01.WEBDLRip.Rus.Eng.DV.LostFilm.avi
    Формат : AVI
    Формат/Информация : Audio Video Interleave
    Размер файла : 754 Мбайт
    Продолжительность : 59 м. 4 с.
    Общий поток : 1785 Кбит/сек
    Название фильма : The.Fall.S03E01.WEBDLRip.Rus.Eng.DV.LostFilm/NNM-Club
    Программа кодирования : VirtualDubModRus 1.5.10.2 (build 2542/release)
    Библиотека кодирования : VirtualDubMod build 2542/release
    Видео
    Идентификатор : 0
    Формат : MPEG-4 Visual
    Профиль формата : Advanced Simple@L5
    Параметр BVOP формата : 2
    Параметр QPel формата : Нет
    Параметр GMC формата : Без точки перехода
    Параметр матрицы формата : Default (H.263)
    Идентификатор кодека : XVID
    Идентификатор кодека/Подсказка : XviD
    Продолжительность : 59 м. 4 с.
    Битрейт : 1515 Кбит/сек
    Ширина : 720 пикселей
    Высота : 400 пикселей
    Соотношение сторон : 16:9
    Частота кадров : 25, 000 кадров/сек
    Цветовое пространство : YUV
    Субдискретизация насыщенности : 4:2:0
    Битовая глубина : 8 бит
    Тип развёртки : Прогрессивная
    Метод сжатия : С потерями
    Бит/(Пиксели*Кадры) : 0.210
    Размер потока : 640 Мбайт (85%)
    Заголовок : Rip by DriverV/NNM-Club
    Библиотека кодирования : XviD 64
    Аудио #1
    Идентификатор : 1
    Формат : MPEG Audio
    Версия формата : Version 1
    Профиль формата : Layer 3
    Режим : Joint stereo
    Расширение режима : MS Stereo
    Идентификатор кодека : 55
    Идентификатор кодека/Подсказка : MP3
    Продолжительность : 59 м. Волк в овечьей шкуре, сказал кто то из толпы, к чему не понятно. 4 с.
    Вид битрейта : Постоянный
    Битрейт : 128 Кбит/сек
    Каналы : 2 канала
    Частота : 48, 0 КГц
    Метод сжатия : С потерями
    Размер потока : 54, 1 Мбайт (7%)
    Выравнивание : Соединение по промежуткам
    Продолжительность промежутка : 40 мс. (1, 00 видеокадр)
    Время предзагрузки промежутка : 504 мс.
    Аудио #2
    Идентификатор : 2
    Формат : MPEG Audio
    Версия формата : Version 1
    Профиль формата : Layer 3
    Режим : Joint stereo
    Расширение режима : MS Stereo
    Идентификатор кодека : 55
    Идентификатор кодека/Подсказка : MP3
    Продолжительность : 59 м. 4 с.
    Вид битрейта : Постоянный
    Битрейт : 128 Кбит/сек
    Каналы : 2 канала
    Частота : 48, 0 КГц
    Метод сжатия : С потерями
    Размер потока : 54, 1 Мбайт (7%)
    Выравнивание : Соединение по промежуткам
    Продолжительность промежутка : 40 мс. (1, 00 видеокадр)
    Время предзагрузки промежутка : 504 мс.


    Скриншоты для ознакомления




    Онлайн видео Крах



    Крах/Падение/The Fall (2016) WEB-DLRip (сезон 3, серии 1 из 6) LostFilm (обновляемая)
    загрузка...
    Рейтинг →
     (голосов: 1, оценка 4/5, голосовать можно 1 раз )

    Другие торренты по теме:

  • Крах / Падение / The Fall (2014) HDTVRip [H.264 / 720p-LQ] (Сезон 2, серии 1 из 6) Paradox (обновляемая) скачать через торрент бесплатно
  • Крах / Падение / The Fall (2014) HDTVRip (Сезон 2, серии 1-3 из 6) (Paradox) (обновляемая) скачать через торрент бесплатно
  • Крах / Падение / The Fall (2013) WEB-DLRip (сезон 1, серии 1 из 5) LostFilm (обновляемая) скачать через торрент бесплатно
  • Крах / Падение / The Fall (2014) WEB-DLRip (сезон 2, серии 1 из 6) LostFilm (обновляемая)
  • Крах / Падение / The Fall (2013) BDRip [720p] (сезон 1, серии 1-5 из 5) [Jaskier]
  • Крах / Падение / The Fall (2013) BDRip (Cезон 1, серии 1-5 из 5) (LostFilm, Jaskier) скачать через торрент бесплатно
  • Крах / Падение / The Fall (2016) WEB-DL [H.264 / 720p-LQ] (сезон 3, серия 1 из 6) LostFilm (обновляемая)
  • Крах / Падение / The Fall (2016) WEB-DL [H.264 / 1080p-LQ] (сезон 3, серии 1 из 6) LostFilm (обновляемая)


    • Комментарии (0):

      Информация

      Информация

        Посетители, находящиеся в группе Гости, не могут оставлять комментарии в данной новости.

        ↓ Меню




        ↓ Опрос

        Вы добавили сайт в закладки?
        Да
        Нет


        Top 10 за месяц (Фильмы)