.
Авторизация | Регистрация
Хочешь лучшие торренты? Добавь свой email!
Добавить

Торрент скачать бесплатно

» » Реанимация / Чёрный код / Code Black (2016) WEB-DL [H.264 / 720p -LQ] (сезон 2, серии 1 из 16) IdeaFilm (обновляемая) торрент скачать бесплатно




    Реанимация / Чёрный код / Code Black (2016) WEB-DL [H.264 / 720p -LQ] (сезон 2, серии 1 из 16) IdeaFilm (обновляемая) торрент скачать бесплатно

    Опубликовал: Админ | Дата: 3-10-2016, 04:00 | Просмотров: 13

    Производство: США/ABC Studios, CBS Television Studios, Michael Seitzman\'s Pictures
    Жанр: драма
    Режиссер: Дэвид Фон Энкен, Ли Роуз, Оз Скотт, Дэвид Семел

    Актеры
    Марша Гей Харден, Бонни Соммервиль, Эмили Элин Линд, Луис Гусман, Линдси МакКеон, Бен Холлингсворт, Раза Джеффри, Кевин Данн, Адина Портер, Мелани Каннокада и др.

    Описание

    Медицинская драма о самой известной в США реанимации, где ошеломляющий приток пациентов может перевесить все возможные ресурсы, доступные врачам для срочного вмешательства. В центре этого контролируемого хаоса реанимации находится ординатура доктора Линн Рориш, которая является лучшим специалистом в области травмы критических случаев.

    Продолжительность: ~00: 45: 00 серия
    Качество видео: WEB-DL
    Перевод: Многоголосый закадровый, профессиональный -IdeaFilm
    Реклама: присутствуют видео, аудио вставки рекламы.
    Видео: AVC/H.264, 1280х720 (16: 9), ~3462 kbps
    Аудио Rus: AC-3, 48, 0 kHz, 6 ch, 384 kbps — многоголосый закадровый
    Аудио Eng: AC-3, 48, 0 kHz, 6 ch, 384 kbps — оригинал
    Код:

    General
    Unique ID : 219239435306797546854156782682344003563 (0xA4EFFAB65718AD7EB6E5BB065DE417EB)
    Complete name : D:Code.Black.S02.WEB-DL.720pCode.Black.S02E01.WEB-DL.720p-IDEAFILM.mkv
    Format : Matroska
    Format version : Version 4/Version 2
    File size : 1.28 GiB
    Duration : 43mn 24s
    Overall bit rate mode : Variable
    Overall bit rate : 4 231 Kbps
    Encoded date : UTC 2016-10-01 11:25:23
    Writing application : mkvmerge v9.2.0 (\'Photograph\') 64bit
    Writing library : libebml v1.3.3 + libmatroska v1.4.4
    Video
    ID : 1
    Format : AVC
    Format/Info : Advanced Video Codec
    Format profile :High@L3.2
    Format settings, CABAC : Yes
    Format settings, ReFrames : 3 frames
    Codec ID : V_MPEG4/ISO/AVC
    Duration : 43mn 24s
    Bit rate mode : Variable
    Bit rate : 3 462 Kbps
    Maximum bit rate : 3 600 Kbps
    Width : 1 280 pixels
    Height : 720 pixels
    Display aspect ratio : 16:9
    Frame rate mode : Constant
    Frame rate : 23.976 (24000/1001) fps
    Standard : NTSC
    Color space : YUV
    Chroma subsampling : 4:2:0
    Bit depth : 8 bits
    Scan type : Progressive
    Bits/(Pixel*Frame) : 0.157
    Stream size : 1.05 GiB (82%)
    Language : English
    Default : Yes
    Forced : No
    Color range : Limited
    Color primaries : BT.709
    Transfer characteristics : BT.709
    Matrix coefficients : BT.709
    Audio #1
    ID : 2
    Format : AC-3
    Format/Info : Audio Coding 3
    Mode extension : CM (complete main)
    Format settings, Endianness : Big
    Codec ID : A_AC3
    Duration : 43mn 24s
    Bit rate mode : Constant
    Bit rate : 384 Kbps
    Channel(s) : 6 channels
    Channel positions : Front: L C R, Side: L R, LFE
    Sampling rate : 48.0 KHz
    Frame rate : 31.250 fps (1536 spf)
    Compression mode : Lossy
    Stream size : 119 MiB (9%)
    Title : IDEAFILM
    Language : Russian
    Default : Yes
    Forced : No
    Audio #2
    ID : 3
    Format : AC-3
    Format/Info : Audio Coding 3
    Mode extension : CM (complete main)
    Format settings, Endianness : Big
    Codec ID : A_AC3
    Duration : 43mn 14s
    Bit rate mode : Constant
    Bit rate : 384 Kbps
    Channel(s) : 6 channels
    Channel positions : Front: L C R, Side: L R, LFE
    Sampling rate : 48.0 KHz
    Frame rate : 31.250 fps (1536 spf)
    Compression mode : Lossy
    Delay relative to video : 10s 0ms
    Stream size : 119 MiB (9%)
    Language : English
    Default : No
    Forced : No


    Скриншоты для ознакомления




    Онлайн видео Реанимация



    Реанимация/Чёрный код/Code Black (2016) WEB-DL [H.264/720p -LQ] (сезон 2, серии 1 из 16) IdeaFilm (обновляемая)
    загрузка...
    Рейтинг →
     (голосов: 1, оценка 5/5, голосовать можно 1 раз )

    Другие торренты по теме:

  • Реанимация / Чёрный код / Code Black (2015) WEB-DLRip (сезон 1, серии 1-6 из 10) IdeaFilm (обновляемая) скачать через торрент бесплатно
  • Реанимация / Чёрный код / Code Black (2015) WEB-DL [H.264 / 1080p-LQ] (сезон 1, серии 1-13 из 15) Baibako (обновляемая)
  • Реанимация / Чёрный код / Code Black (2016) WEB-DL [H.264 / 720p -LQ] (сезон 2, серии 1-16 из 16) IdeaFilm


    • Комментарии (0):

      Информация

      Информация

        Посетители, находящиеся в группе Гости, не могут оставлять комментарии в данной новости.

        ↓ Меню




        ↓ Опрос

        Вы добавили сайт в закладки?
        Да
        Нет


        Top 10 за месяц (Фильмы)