.
Авторизация | Регистрация
Хочешь лучшие торренты? Добавь свой email!
Добавить

Торрент скачать бесплатно

» » Заклятие 2 / The Conjuring 2 (2016) BDRip [H.264 / 1080p-LQ] торрент скачать бесплатно




    Заклятие 2 / The Conjuring 2 (2016) BDRip [H.264 / 1080p-LQ] торрент скачать бесплатно

    Опубликовал: Админ | Дата: 2-10-2016, 04:00 | Просмотров: 15

    Производство: США, Канада/Atomic Monster, Evergreen Media, New Line Cinema, RatPac-Dune Entertainment, Safran Company
    Жанр: Ужасы, Триллер, Детектив
    Режиссер: Джеймс Ван/James Wan
    Продюсер: Роб Кауэн, Питер Сафран, Джеймс Ван

    Актеры
    Патрик Уилсон, Вера Фармига, Мэдисон Вульф, Фрэнсис О’Коннор, Лорен Эспозито, Саймон МакБерни, Мария Дойл Кеннеди, Саймон Делани

    Описание

    Фильм основан на случае, с которым столкнулись практикующие исследователи паранормальных явлений Эд и Лоррэйн Уоррены. Белая горячка, сказал кто то из толпы, к чему не понятно. На этот раз вызов будет из северного пригорода Лондона, где семья, состоящая из четырех детей и матери-одиночки, подвергается нападениям потусторонних сил. Супругам предстоит выяснить, какова природа этих явлений, полтергейст ли это, или что-то другое, и главное — почему именно этот дом и как размытая картина именно эта семья.

    Возраст: 16+ (зрителям, достигшим 16 лет)
    Рейтинг MPAA: R (лицам до 17 лет обязательно присутствие взрослого)
    Дата мировой премьеры: 13 мая 2016
    Дата российской премьеры: 16 июня 2016, Каро-Премьер
    Дата выхода DVD/Blu-ray релиза: 29 сентября 2016
    Релиз от: sergey26.08
    Продолжительность: 02: 13: 53
    Качество видео: BDRip 1080p
    Перевод: Дублированный (Лицензия)
    Язык субтитров: Русские (форсированные, полные), Украинские (форсированные), Английские (полные, полные SDH)
    Вид субтитров: Вшитые отключаемые
    Навигация по главам: Есть
    Видео: AVC/H.264, 1920x800 (2.40: 1), 23.976 fps, 4 226 Kbps (0.115 bit/pixel)
    Аудио №1: AC3, 6 ch, 48 kHz, 448 Kbps, CBR Русский, Дубляж
    Аудио №2: AC3, 6 ch, 48 kHz, 448 Kbps, CBR Английский, Оригинал отдельно
    Код:

    Общее
    Уникальный идентификатор : 232527008652469091496996954463663573475 (0xAEEF12A88AF08CA28F06B016C18849E3)
    Полное имя : D:ТОРРЕНТ РаздачиЗаклятие 2 - The Conjuring 2 (2016) BDRip 1080p (Release by sergey26.08)Заклятие 2.2016.BDRip.1080p.Rus.mkv
    Формат : Matroska
    Версия формата : Version 2
    Размер файла : 4, 37 Гбайт
    Продолжительность : 2 ч. 13 м.
    Общий поток : 4674 Кбит/сек
    Название фильма : Заклятие 2/The Conjuring 2 (2016)
    Дата кодирования : UTC 2016-09-30 01:03:40
    Программа кодирования : mkvmerge v5.8.0 (\'No Sleep/Pillow\') built on Sep 2 2012 15:37:04
    Библиотека кодирования : libebml v1.2.3 + libmatroska v1.3.0
    Attachments : Заклятие 2 The Conjuring 2 (2016).jpg
    Видео
    Идентификатор : 1
    Формат : AVC
    Формат/Информация : Advanced Video Codec
    Профиль формата :High@L4.1
    Параметр CABAC формата : Да
    Параметр ReFrames формата : 5 кадров
    Идентификатор кодека : V_MPEG4/ISO/AVC
    Продолжительность : 2 ч. 13 м.
    Битрейт : 4226 Кбит/сек
    Ширина : 1920 пикселей
    Высота : 800 пикселей
    Соотношение сторон : 2, 40:1
    Режим частоты кадров : Постоянный
    Частота кадров : 23, 976 (24000/1001) кадра/сек
    Цветовое пространство : YUV
    Субдискретизация насыщенности : 4:2:0
    Битовая глубина : 8 бит
    Тип развёртки : Прогрессивная
    Бит/(Пиксели*Кадры) : 0.115
    Размер потока : 3, 86 Гбайт (88%)
    Заголовок : Release by sergey26.08
    Библиотека кодирования : x264 core 148 r2694 3b70645
    Настройки программы : cabac=1/ref=5/deblock=1:-3:-3/analyse=0x3:0x133/me=tesa/subme=11/psy=1/psy_rd=1.00:0.15/mixed_ref=1/me_range=24/chroma_me=1/trellis=2/8x8dct=1/cqm=0/deadzone=21, 11/fast_pskip=0/chroma_qp_offset=-3/threads=12/lookahead_threads=2/sliced_threads=0/nr=0/decimate=0/interlaced=0/bluray_compat=0/constrained_intra=0/bframes=8/b_pyramid=2/b_adapt=2/b_bias=0/direct=3/weightb=1/open_gop=0/weightp=2/keyint=240/keyint_min=23/scenecut=40/intra_refresh=0/rc=2pass/mbtree=0/bitrate=4226/ratetol=1.0/qcomp=0.65/qpmin=0/qpmax=69/qpstep=4/cplxblur=20.0/qblur=0.5/ip_ratio=1.40/pb_ratio=1.30/aq=1:1.00
    Язык : English
    Default : Да
    Forced : Нет
    Аудио
    Идентификатор : 2
    Формат : AC-3
    Формат/Информация : Audio Coding 3
    Расширение режима : CM (complete main)
    Параметр Endianness формата : Big
    Идентификатор кодека : A_AC3
    Продолжительность : 2 ч. 13 м.
    Вид битрейта : Постоянный
    Битрейт : 448 Кбит/сек
    Каналы : 6 каналов
    Расположение каналов : Front: L C R, Side: L R, LFE
    Частота : 48, 0 КГц
    Частота кадров : 31, 250 кадров/сек (1536 spf)
    Метод сжатия : С потерями
    Размер потока : 429 Мбайт (10%)
    Заголовок : Дубляж, Blu-ray CEE
    Язык : Russian
    Default : Да
    Forced : Нет
    Текст #1
    Идентификатор : 3
    Формат : UTF-8
    Идентификатор кодека : S_TEXT/UTF8
    Идентификатор кодека/Информация : UTF-8 Plain Text
    Заголовок : Forced, iTunes
    Язык : Russian
    Default : Да
    Forced : Нет
    Текст #2
    Идентификатор : 4
    Формат : UTF-8
    Идентификатор кодека : S_TEXT/UTF8
    Идентификатор кодека/Информация : UTF-8 Plain Text
    Заголовок : Full, iTunes
    Язык : Russian
    Default : Нет
    Forced : Нет
    Текст #3
    Идентификатор : 5
    Формат : UTF-8
    Идентификатор кодека : S_TEXT/UTF8
    Идентификатор кодека/Информация : UTF-8 Plain Text
    Заголовок : Forced, iTunes
    Язык : Ukrainian
    Default : Нет
    Forced : Нет
    Текст #4
    Идентификатор : 6
    Формат : UTF-8
    Идентификатор кодека : S_TEXT/UTF8
    Идентификатор кодека/Информация : UTF-8 Plain Text
    Заголовок : Full
    Язык : English
    Default : Нет
    Forced : Нет
    Текст #5
    Идентификатор : 7
    Формат : UTF-8
    Идентификатор кодека : S_TEXT/UTF8
    Идентификатор кодека/Информация : UTF-8 Plain Text
    Заголовок : Full, SDH
    Язык : English
    Default : Нет
    Forced : Нет
    Меню
    00:00:00.000 : en:Chapter 01
    00:08:24.671 : en:Chapter 02
    00:18:40.703 : en:Chapter 03
    00:28:34.212 : en:Chapter 04
    00:40:01.399 : en:Chapter 05
    00:48:46.841 : en:Chapter 06
    01:02:14.314 : en:Chapter 07
    01:09:29.665 : en:Chapter 08
    01:21:55.869 : en:Chapter 09
    01:29:26.486 : en:Chapter 10
    01:38:53.469 : en:Chapter 11
    01:48:15.364 : en:Chapter 12
    02:03:10.508 : en:Chapter 13
    02:07:36.816 : en:Chapter 14
    02:13:52.768 : en:Chapter 15
    Отдельная ENG дорожка
    Аудио
    Формат : AC-3
    Формат/Информация : Audio Coding 3
    Расширение режима : CM (complete main)
    Параметр Endianness формата : Big
    Продолжительность : 2 ч. 13 м.
    Вид битрейта : Постоянный
    Битрейт : 448 Кбит/сек
    Каналы : 6 каналов
    Расположение каналов : Front: L C R, Side: L R, LFE
    Частота : 48, 0 КГц
    Частота кадров : 31, 250 кадров/сек (1536 spf)
    Метод сжатия : С потерями
    Размер потока : 429 Мбайт (100%)


    Скриншоты для ознакомления




    Онлайн видео Заклятие 2



    Заклятие 2/The Conjuring 2 (2016) BDRip [H.264/1080p-LQ]
    загрузка...
    Рейтинг →
     (голосов: 1, оценка 5/5, голосовать можно 1 раз )

    Другие торренты по теме:

  • Заклятие / The Conjuring (2013) BDRip [H.264] скачать через торрент бесплатно
  • Joseph Bishara - The Conjuring 2 / Заклятие 2 (Music from the Motion Picture) (2016) [MP3|320 кб / с]<Soundtrack>
  • Заклятие 2 / The Conjuring 2 (2016) TS
  • Заклятие 2 / The Conjuring 2 (2016) TS
  • Заклятие 2 / The Conjuring 2 (2016)
  • Заклятие 2 / The Conjuring 2 (2016) BDRip [H.264 / 1080p]
  • Заклятие 2 / The Conjuring 2 (2016) BDRip [H.264 / 1080p] [EN]
  • Заклятие 2 / The Conjuring 2 (2016) HDRip [Line]


    • Комментарии (0):

      Информация

      Информация

        Посетители, находящиеся в группе Гости, не могут оставлять комментарии в данной новости.

        ↓ Меню




        ↓ Опрос

        Вы добавили сайт в закладки?
        Да
        Нет


        Top 10 за месяц (Фильмы)