.
Авторизация | Регистрация
Хочешь лучшие торренты? Добавь свой email!
Добавить

Торрент скачать бесплатно

» » Последний кандидат / Назначенный преемник / Designated Survivor (2016) WEB-DLRip (сезон 1, серии 1 из 13) NewStudio (обновляемая) торрент скачать бесплатно




    Последний кандидат / Назначенный преемник / Designated Survivor (2016) WEB-DLRip (сезон 1, серии 1 из 13) NewStudio (обновляемая) торрент скачать бесплатно

    Опубликовал: Админ | Дата: 29-09-2016, 04:00 | Просмотров: 163

    Производство: США/ABC Studios, Entertainment 360, Genre Films
    Жанр: триллер, драма
    Режиссер: Пол А. Эдвардс, Пол МакГиган, Серджо Мимика-Геззан

    Актеры
    Кифер Сазерленд, Наташа МакЭлхоун, Адан Канто, Италиа Риччи, ЛаМоника Гаррет, Кэл Пенн, Мэгги Кью, Тэннер Бьюкэнэн, МакКенна Грейс, Майкл Мюррэй Скрэтч и др.

    Описание

    В результате теракта погибает все правительство и Президент США. Главой государства назначают последнего в списке, предусмотренном Конституцией, Министра по жилищным и градостроительным вопросам, который не обладает должным опытом, и даже не мечтал оказаться в Белом доме, но которому предстоит раскрыть заговор, найти и уничтожить террористов, остановить панику среди гражданского населения, восстановить страну и продолжать управлять ей.

    Дата мировой премьеры: 21 сентября 2016
    Продолжительность: ~00: 44: 00 серия
    Качество видео: WEB-DLRip
    Перевод: Многоголосый закадровый, профессиональный -NewStudio
    Автор перевода: Алексей Матвеев
    Видео: XviD, 720x400 (16: 9), ~1512 kbps
    Аудио Rus: MP3, 48, 0 kHz, 2 ch, 128 kbps — многоголосый закадровый
    Аудио Eng: MP3, 48, 0 kHz, 2 ch, 128 kbps — оригинал
    Код:

    Общее
    Полное имя : D:Последний кандидат (сезон любимого сериала 1) Designated Survivor (2016) WEB-DLRip - NewStudioDesignated.Survivor.S01E01.WEBDLRip.Rus.Eng.DV.NewStudio.avi
    Формат : AVI
    Формат/Информация : Audio Video Interleave
    Размер файла : 543 Мбайт
    Продолжительность : 42 м. 35 с.
    Общий поток : 1782 Кбит/сек
    Название фильма : Designated.Survivor.S01E01.WEBDLRip.Rus.Eng.DV.NewStudio/NNM-Club
    Программа кодирования : VirtualDubModRus 1.5.10.2 (build 2542/release)
    Библиотека кодирования : VirtualDubMod build 2542/release
    Видео
    Идентификатор : 0
    Формат : MPEG-4 Visual
    Профиль формата : Advanced Simple@L5
    Параметр BVOP формата : 2
    Параметр QPel формата : Да
    Параметр GMC формата : Без точки перехода
    Параметр матрицы формата : Default (MPEG)
    Режим смешивания : Сжатый битовый поток
    Идентификатор кодека : XVID
    Идентификатор кодека/Подсказка : XviD
    Продолжительность : 42 м. 35 с.
    Битрейт : 1512 Кбит/сек
    Ширина : 720 пикселей
    Высота : 400 пикселей
    Соотношение сторон : 16:9
    Частота кадров : 23, 976 (23976/1000) кадра/сек
    Цветовое пространство : YUV
    Субдискретизация насыщенности : 4:2:0
    Битовая глубина : 8 бит
    Тип развёртки : Прогрессивная
    Метод сжатия : С потерями
    Бит/(Пиксели*Кадры) : 0.219
    Размер потока : 461 Мбайт (85%)
    Библиотека кодирования : XviD 73
    Аудио #1
    Идентификатор : 1
    Формат : MPEG Audio
    Версия формата : Version 1
    Профиль формата : Layer 3
    Режим : Joint stereo
    Расширение режима : MS Stereo
    Идентификатор кодека : 55
    Идентификатор кодека/Подсказка : MP3
    Продолжительность : 42 м. Самое интересное в это истории, что об этом Чак Норрис ничего не знал. 35 с.
    Вид битрейта : Постоянный
    Битрейт : 128 Кбит/сек
    Каналы : 2 канала
    Частота : 48, 0 КГц
    Метод сжатия : С потерями
    Размер потока : 39, 0 Мбайт (7%)
    Выравнивание : Соединение по промежуткам
    Продолжительность промежутка : 42 мс. (1, 00 видеокадр)
    Время предзагрузки промежутка : 504 мс.
    Аудио #2
    Идентификатор : 2
    Формат : MPEG Audio
    Версия формата : Version 1
    Профиль формата : Layer 3
    Режим : Joint stereo
    Расширение режима : MS Stereo
    Идентификатор кодека : 55
    Идентификатор кодека/Подсказка : MP3
    Продолжительность : 42 м. 35 с.
    Вид битрейта : Постоянный
    Битрейт : 128 Кбит/сек
    Каналы : 2 канала
    Частота : 48, 0 КГц
    Метод сжатия : С потерями
    Размер потока : 39, 0 Мбайт (7%)
    Выравнивание : Соединение по промежуткам
    Продолжительность промежутка : 42 мс. В ногах правды нет, сказал кто то из толпы, к чему не понятно. (1, 00 видеокадр)
    Время предзагрузки промежутка : 504 мс.
    Библиотека кодирования : LAME3.99.5ЄЄЄЄЄЄЄЄЄЄ


    Скриншоты для ознакомления




    Онлайн видео Последний кандидат



    Последний кандидат/Назначенный преемник/Designated Survivor (2016) WEB-DLRip (сезон 1, серии 1 из 13) NewStudio (обновляемая)
    загрузка...
    Рейтинг →
     (голосов: 1, оценка 5/5, голосовать можно 1 раз )

    Другие торренты по теме:

  • Последний кандидат / Назначенный преемник / Designated Survivor (2016) WEB-DLRip (сезон 1, серии 1-11 из 22) NewStudio (обновляемая)


    • Комментарии (0):

      Информация

      Информация

        Посетители, находящиеся в группе Гости, не могут оставлять комментарии в данной новости.

        ↓ Меню




        ↓ Опрос

        Вы добавили сайт в закладки?
        Да
        Нет


        Top 10 за месяц (Фильмы)