.
Авторизация | Регистрация
Хочешь лучшие торренты? Добавь свой email!
Добавить

Торрент скачать бесплатно

» » Тонкий лёд (2016) HDTVRip [H.264 / 720p-LQ] (сезон 1, серии 1-4 из 12) (обновляемая) торрент скачать бесплатно




    Тонкий лёд (2016) HDTVRip [H.264 / 720p-LQ] (сезон 1, серии 1-4 из 12) (обновляемая) торрент скачать бесплатно

    Опубликовал: Админ | Дата: 29-09-2016, 04:00 | Просмотров: 34

    Производство: Россия/Первый канал, Студия Бонанза, ПРО-СИНЕМА Продакшн
    Жанр: драма
    Режиссер: Александр Франскевич-Лайе

    Актеры
    Алексей Гуськов, Екатерина Гусева, Егор Бероев, Андрей Руденский, Ян Цапник, Виктория Маслова, Наталья Рудова, Александр Пашков, Лидия Вележева, Игорь Угольников и др.

    Описание

    Порядок жизни в этой семье долгие годы диктовался волей Игоря Палагина, мужа и отца, успешного строительного магната с авторитарным стилем мышления. Но он и представить не мог, что случайная встреча его молодой жены, матери двоих детей Ирины с бизнесменом и автогонщиком Андреем Гаврюшовым зайдет настолько далеко. В деловой среде не место семейным скандалам! Но на что способен каждый из них в диаметрально противоположном стремлении — обрести личное счастье и сохранить семью?

    Возраст: 16+ (зрителям, достигшим 16 лет)
    Дата российской премьеры: 26 сентября 2016
    Релиз от: GeneralFilm, olegka7373
    Продолжительность: ~00: 51: 00 серия
    Качество видео: HDTVRip
    Видео: AVC/H.264, 1280x720 (16: 9), ~3500 Кбит/с
    Аудио: AC3, 2 канала, 192 Кбит/с
    Код:

    Общее
    Уникальный идентификатор : 181285916368875320528502002079070798243 (0x886265C172FB3BF4B835647C80C5C1A3)
    Полное имя : D:ФильмыМои раздачиТонкий лёдTonkij ljod.HDTVRip.(720p).GeneralFilmTonkij ljod.01.HDTVRip.(720p).GeneralFilm.mkv
    Формат : Matroska
    Версия формата : Version 2
    Размер файла : 1, 32 Гбайт
    Продолжительность : 51 м.
    Общий поток : 3694 Кбит/сек
    Дата кодирования : UTC 2016-09-26 20:23:35
    Программа кодирования : mkvmerge v6.1.0 (\'Old Devil\') built on Mar 4 2013 09:10:42
    Библиотека кодирования : libebml v1.3.0 + libmatroska v1.4.0
    Видео
    Идентификатор : 1
    Формат : AVC
    Формат/Информация : Advanced Video Codec
    Профиль формата :High@L4.1
    Параметр CABAC формата : Да
    Параметр ReFrames формата : 9 кадров
    Идентификатор кодека : V_MPEG4/ISO/AVC
    Продолжительность : 51 м.
    Битрейт : 3500 Кбит/сек
    Ширина : 1280 пикселей
    Высота : 720 пикселей
    Соотношение сторон : 16:9
    Режим частоты кадров : Постоянный
    Частота кадров : 25, 000 кадров/сек
    Цветовое пространство : YUV
    Субдискретизация насыщенности : 4:2:0
    Битовая глубина : 8 бит
    Тип развёртки : Прогрессивная
    Бит/(Пиксели*Кадры) : 0.152
    Размер потока : 1, 23 Гбайт (93%)
    Библиотека кодирования : x264 core 130 r2273 b3065e6
    Настройки программы : cabac=1/ref=9/deblock=1:-2:-1/analyse=0x3:0x113/me=umh/subme=9/psy=1/psy_rd=1.00:0.15/mixed_ref=1/me_range=32/chroma_me=1/trellis=2/8x8dct=1/cqm=0/deadzone=21, 11/fast_pskip=0/chroma_qp_offset=-3/threads=6/lookahead_threads=1/sliced_threads=0/nr=0/decimate=0/interlaced=0/bluray_compat=0/constrained_intra=0/bframes=9/b_pyramid=2/b_adapt=2/b_bias=0/direct=3/weightb=1/open_gop=0/weightp=2/keyint=250/keyint_min=25/scenecut=40/intra_refresh=0/rc_lookahead=50/rc=2pass/mbtree=1/bitrate=3500/ratetol=1.0/qcomp=0.60/qpmin=0/qpmax=69/qpstep=4/cplxblur=20.0/qblur=0.5/vbv_maxrate=50000/vbv_bufsize=50000/nal_hrd=none/ip_ratio=1.40/aq=2:1.00
    Default : Да
    Forced : Нет
    Основные цвета : BT.709
    Характеристики трансфера : BT.709
    Коэффициенты матрицы : BT.709
    Аудио
    Идентификатор : 2
    Формат : AC-3
    Формат/Информация : Audio Coding 3
    Расширение режима : CM (complete main)
    Параметр Endianness формата : Big
    Идентификатор кодека : A_AC3
    Продолжительность : 51 м.
    Вид битрейта : Постоянный
    Битрейт : 192 Кбит/сек
    Каналы : 2 канала
    Расположение каналов : Front: L R
    Частота : 48, 0 КГц
    Битовая глубина : 16 бит
    Метод сжатия : С потерями
    Размер потока : 70, 3 Мбайт (5%)
    Default : Да
    Forced : Нет


    Скриншоты для ознакомления




    Онлайн видео Тонкий лёд (2016) HDTVRip [H.264



    Тонкий лёд (2016) HDTVRip [H.264/720p-LQ] (сезон 1, серии 1-4 из 12) (обновляемая)
    загрузка...
    Рейтинг →
     (голосов: 1, оценка 3/5, голосовать можно 1 раз )

    Другие торренты по теме:

  • Тонкий лёд (2016) HDTVRip (сезон 1, серии 1-6 из 12) (обновляемая)


    • Комментарии (0):

      Информация

      Информация

        Посетители, находящиеся в группе Гости, не могут оставлять комментарии в данной новости.

        ↓ Меню




        ↓ Опрос

        Вы добавили сайт в закладки?
        Да
        Нет


        Top 10 за месяц (Фильмы)