.
Авторизация | Регистрация
Хочешь лучшие торренты? Добавь свой email!
Добавить

Торрент скачать бесплатно

» » Полиция Чикаго / Chicago PD (2016) WEB-DL (H.264 / 720p-LQ) (сезон 4, серии 1 из 22) Шадинский (обновляемая) торрент скачать бесплатно




    Полиция Чикаго / Chicago PD (2016) WEB-DL (H.264 / 720p-LQ) (сезон 4, серии 1 из 22) Шадинский (обновляемая) торрент скачать бесплатно

    Опубликовал: Админ | Дата: 29-09-2016, 04:00 | Просмотров: 27

    Производство: США
    Жанр: Боевик, Драма
    Режиссер: Марк Тинкер, Артур В. Форни

    Актеры
    Джон Седа, Джейсон Бех, София Буш, Элиас Котеас, Джесси Ли Софер, Арчи Као, Патрик Джон Флюгер, Марина Скверсьяти, ЛаРойс Хоккинс, Мелисса Сейджмиллер и др.

    Описание

    Полиция Чикаго (Chicago PD) - спин-офф сериала Пожарные Чикаго (Chicago Fire).
    В центре сюжета находятся работники полицейского департамента города Чикаго, в частности две группы полицейских, которые находятся на разных ступенях власти.

    Релиз от: Шадинский
    Продолжительность: ~ 00: 43: 00 серия
    Качество видео: WEB-DL
    Перевод: Одноголосый закадровый, профессиональный
    Озвучка : Шадинский
    Автор перевода: Полина Ким
    Вид субтитров: Вшитые отключаемые
    Язык субтитров: Английский
    Видео: AVC/H.264, 1280x720, ~3927 Kbps
    Аудио #1: AC3, 6 ch, 384 kbs, CBR - одноголосый закадровый
    Аудио #2: AC3, 6 ch, 384 kbs, CBR - оригинал
    Код:

    General
    Unique ID : 225514157326918519968280214133609039124 (0xA9A87264A00450C483F15238654F8514)
    Complete name : E:Video2СериалыChicago PD s4Chicago.P.D.S04E01.mkv
    Format : Matroska
    Format version : Version 4/Version 2
    File size : 1.40 GiB
    Duration : 41 min 44 s
    Overall bit rate : 4 790 kb/s
    Encoded date : UTC 2016-09-25 06:09:05
    Writing application : mkvmerge v6.7.0 (\'Back to the Ground\') 64bit built on Jan 8 2014 15:10:52
    Writing library : libebml v1.3.0 + libmatroska v1.4.1
    Video
    ID : 1
    Format : AVC
    Format/Info : Advanced Video Codec
    Format profile :High@L3.1
    Format settings, CABAC : No
    Format settings, ReFrames : 2 frames
    Codec ID : V_MPEG4/ISO/AVC
    Duration : 41 min 44 s
    Bit rate : 3 927 kb/s
    Width : 1 280 pixels
    Height : 720 pixels
    Display aspect ratio : 16:9
    Frame rate mode : Constant
    Frame rate : 23.976 (24000/1001) FPS
    Color space : YUV
    Chroma subsampling : 4:2:0
    Bit depth : 8 bits
    Scan type : Progressive
    Bits/(Pixel*Frame) : 0.178
    Stream size : 1.15 GiB (82%)
    Language : English
    Default : Yes
    Forced : No
    Color range : Limited
    Color primaries : BT.709
    Transfer characteristics : BT.709
    Matrix coefficients : BT.709
    Audio #1
    ID : 2
    Format : AC-3
    Format/Info : Audio Coding 3
    Mode extension : CM (complete main)
    Format settings, Endianness : Big
    Codec ID : A_AC3
    Duration : 41 min 44 s
    Bit rate mode : Constant
    Bit rate : 384 kb/s
    Channel(s) : 6 channels
    Channel positions : Front: L C R, Side: L R, LFE
    Sampling rate : 48.0 kHz
    Frame rate : 31.250 FPS (1536 spf)
    Compression mode : Lossy
    Stream size : 115 MiB (8%)
    Language : Russian
    Default : Yes
    Forced : No
    Audio #2
    ID : 3
    Format : AC-3
    Format/Info : Audio Coding 3
    Mode extension : CM (complete main)
    Format settings, Endianness : Big
    Codec ID : A_AC3
    Duration : 41 min 44 s
    Bit rate mode : Constant
    Bit rate : 384 kb/s
    Channel(s) : 6 channels
    Channel positions : Front: L C R, Side: L R, LFE
    Sampling rate : 48.0 kHz
    Frame rate : 31.250 FPS (1536 spf)
    Compression mode : Lossy
    Stream size : 115 MiB (8%)
    Language : English
    Default : No
    Forced : No
    Text
    ID : 4
    Format : UTF-8
    Codec ID : S_TEXT/UTF8
    Codec ID/Info : UTF-8 Plain Text
    Language : English
    Default : No
    Forced : No


    Скриншоты для ознакомления




    Онлайн видео Полиция Чикаго



    Полиция Чикаго/Chicago PD (2016) WEB-DL (H.264/720p-LQ) (сезон 4, серии 1 из 22) Шадинский (обновляемая)
    загрузка...
    Рейтинг →
     (голосов: 1, оценка 4/5, голосовать можно 1 раз )

    Другие торренты по теме:

  • Полиция Чикаго / Chicago PD (2014) WEB-DL [H.264 / 720p-LQ] (Сезон 2, серия 1 из ) (Шадинский) (обновляемая)
  • Полиция Чикаго / Chicago PD (2015) WEB-DLRip [H.264 / 720p-LQ] (сезон 3, серии 1-2 из 7) Шадинский (обновляемая) скачать через торрент бесплатно
  • Полиция Чикаго / Chicago PD (2016) WEB-DL (H.264 / 720p-LQ) (сезон 4, серии 1-14 из 22) Шадинский (обновляемая)


    • Комментарии (0):

      Информация

      Информация

        Посетители, находящиеся в группе Гости, не могут оставлять комментарии в данной новости.

        ↓ Меню




        ↓ Опрос

        Вы добавили сайт в закладки?
        Да
        Нет


        Top 10 за месяц (Фильмы)