.
Авторизация | Регистрация
Хочешь лучшие торренты? Добавь свой email!
Добавить

Торрент скачать бесплатно

» » Тонкий лёд (2016) HDTVRip (сезон 1, серии 1-6 из 12) (обновляемая) торрент скачать бесплатно




    Тонкий лёд (2016) HDTVRip (сезон 1, серии 1-6 из 12) (обновляемая) торрент скачать бесплатно

    Опубликовал: Админ | Дата: 29-09-2016, 04:00 | Просмотров: 37

    Производство: Россия/Первый канал, Студия Бонанза, ПРО-СИНЕМА Продакшн
    Жанр: драма
    Режиссер: Александр Франскевич-Лайе

    Актеры
    Алексей Гуськов, Екатерина Гусева, Егор Бероев, Андрей Руденский, Ян Цапник, Виктория Маслова, Наталья Рудова, Александр Пашков, Лидия Вележева, Игорь Угольников и др.

    Описание

    Порядок жизни в этой семье долгие годы диктовался волей Игоря Палагина, мужа и отца, успешного строительного магната с авторитарным стилем мышления. Но он и представить не мог, что случайная встреча его молодой жены, матери двоих детей Ирины с бизнесменом и автогонщиком Андреем Гаврюшовым зайдет настолько далеко. В деловой среде не место семейным скандалам! Но на что способен каждый из них в диаметрально противоположном стремлении — обрести личное счастье и сохранить семью?

    Возраст: 16+ (зрителям, достигшим 16 лет)
    Дата российской премьеры: 26 сентября 2016
    Релиз от: GeneralFilm, olegka7373
    Продолжительность: ~00: 51: 00 серия
    Качество видео: HDTVRip
    Видео: Xvid, 720х400 (16: 9), ~1799 kbps
    Аудио: AC3, 2 ch, 192 kbps
    Код:

    Общее
    Полное имя : D:ФильмыМои раздачиТонкий лёдTonkij ljod.HDTVRip.GeneralFilmTonkij ljod.01.HDTVRip.GeneralFilm.avi
    Формат : AVI
    Формат/Информация : Audio Video Interleave
    Размер файла : 732 Мбайт
    Продолжительность : 51 м.
    Общий поток : 2001 Кбит/сек
    Программа кодирования : VirtualDubMod 1.5.10.3 (build 2550/release)
    Библиотека кодирования : VirtualDubMod build 2550/release
    Видео
    Идентификатор : 0
    Формат : MPEG-4 Visual
    Профиль формата : Advanced Simple@L5
    Параметр BVOP формата : 1
    Параметр QPel формата : Нет
    Параметр GMC формата : Без точки перехода
    Параметр матрицы формата : Выборочная
    Идентификатор кодека : XVID
    Идентификатор кодека/Подсказка : XviD
    Продолжительность : 51 м.
    Битрейт : 1799 Кбит/сек
    Ширина : 720 пикселей
    Высота : 400 пикселей
    Соотношение сторон : 16:9
    Частота кадров : 25, 000 кадров/сек
    Цветовое пространство : YUV
    Субдискретизация насыщенности : 4:2:0
    Битовая глубина : 8 бит
    Тип развёртки : Прогрессивная
    Метод сжатия : С потерями
    Бит/(Пиксели*Кадры) : 0.250
    Размер потока : 658 Мбайт (90%)
    Библиотека кодирования : XviD 73
    Аудио
    Идентификатор : 1
    Формат : AC-3
    Формат/Информация : Audio Coding 3
    Расширение режима : CM (complete main)
    Параметр Endianness формата : Big
    Идентификатор кодека : 2000
    Продолжительность : 51 м.
    Вид битрейта : Постоянный
    Битрейт : 192 Кбит/сек
    Каналы : 2 канала
    Расположение каналов : Front: L R
    Частота : 48, 0 КГц
    Битовая глубина : 16 бит
    Метод сжатия : С потерями
    Размер потока : 70, 3 Мбайт (10%)
    Выравнивание : Разделение по промежуткам
    Продолжительность промежутка : 40 мс. Большая шишка, сказал кто то из толпы, к чему не понятно. (1, 00 видеокадр)
    Время предзагрузки промежутка : 500 мс.


    Скриншоты для ознакомления




    Онлайн видео Тонкий лёд (2016) HDTVRip (сезон любимого сериала 1, серии 1



    Тонкий лёд (2016) HDTVRip (сезон 1, серии 1-6 из 12) (обновляемая)
    загрузка...
    Рейтинг →
     (голосов: 1, оценка 3/5, голосовать можно 1 раз )

    Другие торренты по теме:

  • Тонкий лёд (2016) HDTVRip [H.264 / 720p-LQ] (сезон 1, серии 1-4 из 12) (обновляемая)


    • Комментарии (0):

      Информация

      Информация

        Посетители, находящиеся в группе Гости, не могут оставлять комментарии в данной новости.

        ↓ Меню




        ↓ Опрос

        Вы добавили сайт в закладки?
        Да
        Нет


        Top 10 за месяц (Фильмы)