.
Авторизация | Регистрация
Хочешь лучшие торренты? Добавь свой email!
Добавить

Торрент скачать бесплатно

» » Изгоняющий дьявола / Экзорцист / The Exorcist (2016) HDTVRip [H.264 / 720p-LQ] (сезон 1, серии 1 из 13) Victory-Films (обновляемая) торрент скачать бесплатно




    Изгоняющий дьявола / Экзорцист / The Exorcist (2016) HDTVRip [H.264 / 720p-LQ] (сезон 1, серии 1 из 13) Victory-Films (обновляемая) торрент скачать бесплатно

    Опубликовал: Админ | Дата: 28-09-2016, 04:00 | Просмотров: 12

    Производство: США/Morgan Creek Productions, New Neighborhood, 20th Century Fox Television
    Жанр: ужасы, триллер
    Режиссер: Майкл Нанкин, Джейсон Энслер, Руперт Уайатт

    Актеры
    Альфонсо Эррера, Бен Дэниелс, Джина Дэвис, Ханна Касулка, Брианна Хоуи, Алан Рак, Музам Маккар, Френсис Гуинан и др.

    Описание

    Психологический триллер, события которого перенесены в современность, повествует о смиренном, самоотверженном отце Томасе Ортеге и пылком божьем воине отце Маркусе Лэнге, которым, невзирая на разность взглядов, предстоит объединиться в неравной битве со злом в виде демонической одержимости в одной семье.

    Дата мировой премьеры : 23 сентября 2016
    Продолжительность : ~00: 46: 00 серия
    Качество видео: HDTVRip
    Перевод: Многоголосый закадровый, любительский - Victory-Films
    Реклама: присутствуют видео, аудио вставки рекламы
    Видео: AVC/H.264, 1280x720 (16: 9), ~3457 Кбит/с
    Аудио: AC3, 2 канала, 192 Кбит/с, CBR
    Код:

    Полное имя : E:Victory-FilmsЭкзорцист 2016 - Studio Victory-FilmsThe.Exorcist.S01E01.720p.HDTV.x264-Studio Victory-Films.mkv
    Формат : Matroska
    Версия формата : Version 2
    Размер файла : 1, 17 Гбайт
    Продолжительность : 46 м.
    Общий поток : 3641 Кбит/сек
    Дата кодирования : UTC 2016-08-31 23:24:59
    Программа кодирования : Lavf54.63.104
    Библиотека кодирования : Lavf54.63.104
    Видео
    Идентификатор : 1
    Формат : AVC
    Формат/Информация : Advanced Video Codec
    Профиль формата :Main@L3.1
    Параметр CABAC формата : Да
    Параметр ReFrames формата : 1 кадр
    Идентификатор кодека : V_MPEG4/ISO/AVC
    Продолжительность : 46 м.
    Битрейт : 3457 Кбит/сек
    Ширина : 1280 пикселей
    Высота : 720 пикселей
    Соотношение сторон : 16:9
    Режим частоты кадров : Постоянный
    Частота кадров : 23, 976 кадра/сек
    Цветовое пространство : YUV
    Субдискретизация насыщенности : 4:2:0
    Битовая глубина : 8 бит
    Тип развёртки : Прогрессивная
    Бит/(Пиксели*Кадры) : 0.156
    Размер потока : 1, 09 Гбайт (93%)
    Библиотека кодирования : x264 core 129
    Default : Да
    Forced : Нет
    Аудио
    Идентификатор : 2
    Формат : AC-3
    Формат/Информация : Audio Coding 3
    Расширение режима : CM (complete main)
    Параметр Endianness формата : Big
    Идентификатор кодека : A_AC3
    Продолжительность : 46 м.
    Вид битрейта : Постоянный
    Битрейт : 192 Кбит/сек
    Каналы : 2 канала
    Расположение каналов : Front: L R
    Частота : 48, 0 КГц
    Битовая глубина : 16 бит
    Метод сжатия : С потерями
    Размер потока : 63, 3 Мбайт (5%)
    Default : Да
    Forced : Нет


    Скриншоты для ознакомления




    Онлайн видео Изгоняющий дьявола



    Изгоняющий дьявола/Экзорцист/The Exorcist (2016) HDTVRip [H.264/720p-LQ] (сезон 1, серии 1 из 13) Victory-Films (обновляемая)
    загрузка...
    Рейтинг →
     (голосов: 1, оценка 4/5, голосовать можно 1 раз )

    Другие торренты по теме:

  • Изгоняющий дьявола / The Exorcist (1973 / 2000) [Extended Directors Cut] BDRip [720p] скачать через торрент бесплатно
  • Изгоняющий дьявола / The Exorcist (1973 / 2000) [Extended Directors Cut] BDRip [720p] скачать через торрент бесплатно
  • Изгоняющий дьявола / The Exorcist (1973 / 2000) BDRip [H.264 / 720p-LQ] [Extended Directors Cut] [Hi10P] скачать через торрент бесплатно
  • Изгоняющий дьявола III / The Exorcist III (1990) HDRip скачать через торрент бесплатно
  • Изгоняющий дьявола: Начало / Exorcist: The Beginning (2004) HDRip [H.264] скачать через торрент бесплатно
  • Изгоняющий дьявола: Приквел / Dominion - Prequel to the Exorcist (2005) HDRip [H.264] скачать через торрент бесплатно
  • Изгоняющий дьявола 2: Еретик / Exorcist 2: The Heretic (1977) HDRip [H.264] скачать через торрент бесплатно
  • Уильям Питер Блэтти | Изгоняющий дьявола (2013) [MP3]


    • Комментарии (0):

      Информация

      Информация

        Посетители, находящиеся в группе Гости, не могут оставлять комментарии в данной новости.

        ↓ Меню




        ↓ Опрос

        Вы добавили сайт в закладки?
        Да
        Нет


        Top 10 за месяц (Фильмы)