.
Авторизация | Регистрация
Хочешь лучшие торренты? Добавь свой email!
Добавить

Торрент скачать бесплатно

» » Империя / Empire (2016) WEB-DLRip (сезон 3, серия 1 из 18) Greb&CGC (обновляемая) торрент скачать бесплатно




    Империя / Empire (2016) WEB-DLRip (сезон 3, серия 1 из 18) Greb&CGC (обновляемая) торрент скачать бесплатно

    Опубликовал: Админ | Дата: 28-09-2016, 04:00 | Просмотров: 16

    Производство: США/Imagine Television, Lee Daniels Entertainment, Danny Strong Productions
    Жанр: драма, музыка
    Режиссер: Ли Дэниелс

    Актеры
    Терренс Ховард, Тараджи П. Хенсон, Трэй Байерс, Джусси Смоллетт, Брайшир Ай Грэй, Грейс Джили, Кэйтлин Даблдэй, Габури Сидибе, Серайя и др.

    Описание

    Продолжение семейной хип-хоп династии Лайонов и большей частью их компании Empire Entertainment. Люциус и Куки Лайон воссоединяются против нежданного противника. Бесплатный сыр, сказал кто то из толпы, к чему не понятно. Хаким все еще не оправился от горя после того, как был оставлен у алтаря, а Джамал медленно восстанавливается после полученного ранения

    Релиз от: qqss44
    Продолжительность: ~00: 44: 00 серия
    Качество видео: WEB-DLRip
    Перевод: Многоголосый закадровый, профессиональный –GrebCGC по заказу Amedia
    Вид субтитров: отдельным файлом
    Язык субтитров: русский, английский
    Видео: Xvid, 720x400 (16: 9), ~1322 kbps
    Аудио Rus: MP3, 48 kHz, 2 ch, 128 kbps, CBR – многоголосый закадровый
    Аудио Eng: MP3, 48 kHz, 2 ch, 128 kbps, CBR – оригинал
    Код:
    Общее
    Полное имя : D:MoviesEmpire [season 3, 2016]Empire.[S03E01].XviD.Amedia.[qqss44].avi
    Формат : AVI
    Формат/Информация : Audio Video Interleave
    Размер файла : 501 Мбайт
    Продолжительность : 43 м. 59 с.
    Общий поток : 1592 Кбит/сек
    Программа кодирования : VirtualDubMod 1.5.10.3 |www.virtualdub-fr.org|| (build 2550/release)
    Библиотека кодирования : VirtualDubMod build 2550/release
    Видео
    Идентификатор : 0
    Формат : MPEG-4 Visual
    Профиль формата : Advanced Simple@L5
    Параметр BVOP формата : 2
    Параметр QPel формата : Нет
    Параметр GMC формата : Без точки перехода
    Параметр матрицы формата : Выборочная
    Идентификатор кодека : XVID
    Идентификатор кодека/Подсказка : XviD
    Продолжительность : 43 м. 59 с.
    Битрейт : 1322 Кбит/сек
    Ширина : 720 пикселей
    Высота : 400 пикселей
    Соотношение сторон : 16:9
    Частота кадров : 25, 000 кадров/сек
    Цветовое пространство : YUV
    Субдискретизация насыщенности : 4:2:0
    Битовая глубина : 8 бит
    Тип развёртки : Прогрессивная
    Метод сжатия : С потерями
    Бит/(Пиксели*Кадры) : 0.184
    Размер потока : 416 Мбайт (83%)
    Библиотека кодирования : XviD 73
    Аудио #1
    Идентификатор : 1
    Формат : MPEG Audio
    Версия формата : Version 1
    Профиль формата : Layer 3
    Режим : Joint stereo
    Расширение режима : MS Stereo
    Идентификатор кодека : 55
    Идентификатор кодека/Подсказка : MP3
    Продолжительность : 43 м. 59 с.
    Вид битрейта : Постоянный
    Битрейт : 128 Кбит/сек
    Каналы : 2 канала
    Частота : 48, 0 КГц
    Метод сжатия : С потерями
    Размер потока : 40, 3 Мбайт (8%)
    Выравнивание : Соединение по промежуткам
    Продолжительность промежутка : 40 мс. (1, 00 видеокадр)
    Время предзагрузки промежутка : 504 мс.
    Аудио #2
    Идентификатор : 2
    Формат : MPEG Audio
    Версия формата : Version 1
    Профиль формата : Layer 3
    Режим : Joint stereo
    Расширение режима : MS Stereo
    Идентификатор кодека : 55
    Идентификатор кодека/Подсказка : MP3
    Продолжительность : 43 м. 59 с.
    Вид битрейта : Постоянный
    Битрейт : 128 Кбит/сек
    Каналы : 2 канала
    Частота : 48, 0 КГц
    Метод сжатия : С потерями
    Размер потока : 40, 3 Мбайт (8%)
    Выравнивание : Соединение по промежуткам
    Продолжительность промежутка : 40 мс. Самое интересное в это истории, что об этом Жириновский ничего не знал. (1, 00 видеокадр)
    Время предзагрузки промежутка : 504 мс.


    Скриншоты для ознакомления




    Онлайн видео Империя



    Империя/Empire (2016) WEB-DLRip (сезон 3, серия 1 из 18) Greb&CGC (обновляемая)
    загрузка...
    Рейтинг →
     (голосов: 1, оценка 3/5, голосовать можно 1 раз )

    Другие торренты по теме:

  • Империя / Empire (2015) WEB-DL [H.264 / 720p-LQ] (сезон 1, серия 1 из 12) Amedia (Обновляемая)
  • Империя / Empire (2015) HDTVRip [H.264 / 1080p-LQ] (сезон 2, серии 0-1 из 18 + доп.материалы) Amedia (обновляемая) скачать через торрент бесплатно
  • Империя / Empire (2015) HDTVRip / HDTV [H.264 / 1080p-LQ] (сезон 2, серии 0-16 из 18 + доп.материалы) Amedia (обновляемая)
  • Империя / Empire (2016) WEB-DLRip (сезон 3, серии 1-10 из 18) Greb&CGC (обновляемая)
  • Магазин «Империя» / Empire Records (1995) BDRip [H.264 / 1080p]
  • Подпольная империя (Преступная империя) / Boardwalk Empire (2014) HDTVRip (Сезон 5, серии 1-3 из 8) Ю.Сербин (обновляемая)
  • Подпольная империя (Преступная империя) / Boardwalk Empire (2014) HDTVRip (Сезон 5, серии 1-3 из 8) Amedia (обновляемая)
  • Империя трупов | Shisha no Teikoku | Империя мертвецов | The Empire of Corpses [2015, MV] BDRip 1080p rus


    • Комментарии (0):

      Информация

      Информация

        Посетители, находящиеся в группе Гости, не могут оставлять комментарии в данной новости.

        ↓ Меню




        ↓ Опрос

        Вы добавили сайт в закладки?
        Да
        Нет


        Top 10 за месяц (Фильмы)