.
Авторизация | Регистрация
Хочешь лучшие торренты? Добавь свой email!
Добавить

Торрент скачать бесплатно

» » Половое воспитание / Sex Ed (2014) WEB-DLRip торрент скачать бесплатно




    Половое воспитание / Sex Ed (2014) WEB-DLRip торрент скачать бесплатно

    Опубликовал: Админ | Дата: 28-09-2016, 04:00 | Просмотров: 16

    Производство: США
    Жанр: Мелодрама, комедия
    Режиссер: Исаак Федер

    Актеры
    Лоренца Иззо, Хэйли Джоэл Осмент, Глен Пауэлл, Лаура Хэрринг, Джордж Идс, Эбби Эллиотт, Мэтт Уолш, Ретта, Паркер Янг, Рэй Сантьяго

    Описание

    Эдди проводит свой первый урок в средней школе и обнаруживает, что его ученики не получают никакого полового воспитания. Он решает это исправить, хотя сам не слишком опытен в этой сфере.

    Возраст: 18+ (зрителям, достигшим 18 лет. запрещено для детей)
    Продолжительность: 01: 32: 22
    Качество видео: WEB-DLRip
    Перевод: Дублированный (iTunes)
    Язык субтитров: Английский
    Вид субтитров: Отдельным файлом
    Видео: Xvid, 720x304@AR 723: 304 (2, 40: 1), ~1457 Kbps (0.278 bit/pixel)
    Аудио 1: РусскийDolby AC3, 6 ch, 384 Kbps, CBR
    Аудио 2: АнглийскийDolby AC3, 6 ch, 384 Kbps, CBR
    Код:

    General
    Complete name :Sex Ed (2014) WEB-DLRip.avi
    Format : AVI
    Format/Info : Audio Video Interleave
    Format profile : OpenDML
    File size : 1.45 GiB
    Duration : 1 h 32 min
    Overall bit rate : 2 244 kb/s
    Movie name : Rip by basma4i
    Writing application : Lavf57.41.100
    Video
    ID : 0
    Format : MPEG-4 Visual
    Format profile : Simple@L5
    Format settings, BVOP : No
    Format settings, QPel : No
    Format settings, GMC : No warppoints
    Format settings, Matrix : Default (H.263)
    Codec ID : XVID
    Codec ID/Hint : XviD
    Duration : 1 h 32 min
    Bit rate : 1 458 kb/s
    Width : 720 pixels
    Height : 304 pixels
    Display aspect ratio : 2.40:1
    Frame rate : 23.976 (24000/1001) FPS
    Color space : YUV
    Chroma subsampling : 4:2:0
    Bit depth : 8 bits
    Scan type : Progressive
    Compression mode : Lossy
    Bits/(Pixel*Frame) : 0.278
    Stream size : 963 MiB (65%)
    Writing library : XviD 67
    Audio #1
    ID : 1
    Format : AC-3
    Format/Info : Audio Coding 3
    Mode extension : CM (complete main)
    Format settings, Endianness : Big
    Codec ID : 2000
    Duration : 1 h 32 min
    Bit rate mode : Constant
    Bit rate : 384 kb/s
    Channel(s) : 6 channels
    Channel positions : Front: L C R, Side: L R, LFE
    Sampling rate : 48.0 kHz
    Frame rate : 31.250 FPS (1536 spf)
    Bit depth : 16 bits
    Compression mode : Lossy
    Stream size : 254 MiB (17%)
    Alignment : Aligned on interleaves
    Interleave, duration : 32 ms (0.77 video frame)
    Audio #2
    ID : 2
    Format : AC-3
    Format/Info : Audio Coding 3
    Mode extension : CM (complete main)
    Format settings, Endianness : Big
    Codec ID : 2000
    Duration : 1 h 32 min
    Bit rate mode : Constant
    Bit rate : 384 kb/s
    Channel(s) : 6 channels
    Channel positions : Front: L C R, Side: L R, LFE
    Sampling rate : 48.0 kHz
    Frame rate : 31.250 FPS (1536 spf)
    Bit depth : 16 bits
    Compression mode : Lossy
    Stream size : 254 MiB (17%)
    Alignment : Aligned on interleaves
    Interleave, duration : 32 ms (0.77 video frame))


    Скриншоты для ознакомления




    Онлайн видео Половое воспитание



    Половое воспитание/Sex Ed (2014) WEB-DLRip
    загрузка...
    Рейтинг →
     (голосов: 1, оценка 3/5, голосовать можно 1 раз )

    Другие торренты по теме:

  • Половое воспитание / Sex Ed (2014) WEB-DLRip [Line] скачать через торрент бесплатно


    • Комментарии (0):

      Информация

      Информация

        Посетители, находящиеся в группе Гости, не могут оставлять комментарии в данной новости.

        ↓ Меню




        ↓ Опрос

        Вы добавили сайт в закладки?
        Да
        Нет


        Top 10 за месяц (Фильмы)