.
Авторизация | Регистрация
Хочешь лучшие торренты? Добавь свой email!
Добавить

Торрент скачать бесплатно

» » Бесстыдники / Бесстыжие / Shameless (US) (2016) HDTVRip [H.264 / 720p-LQ] (сезон 7, серия 1 из 12) AlexFilm (обновляемая) торрент скачать бесплатно




    Бесстыдники / Бесстыжие / Shameless (US) (2016) HDTVRip [H.264 / 720p-LQ] (сезон 7, серия 1 из 12) AlexFilm (обновляемая) торрент скачать бесплатно

    Опубликовал: Админ | Дата: 27-09-2016, 04:01 | Просмотров: 6

    Производство: США, Bonanza Productions, John Wells Productions, Showtime Networks Inc., Sterling Films (V), Warner Bros. О таком странном сюжете не догадывалась даже Волочкова. Television
    Жанр: драма, комедия
    Режиссер: Кристофер Чулак, Эмми Россам

    Актеры
    Уильям Х. Мэйси, Эмми Россам, Камерон Монахэн, Джереми Аллен Уайт, Эмма Кинни, Итэн Каткоски, Блейк Александр Джонсон, Бреннан Кэйн Джонсон, Шанола Хэмптон, Стив Хоуи и др.

    Описание

    Курсы плавания от Фрэнка, излечение от алкоголизма с Липом, адаптация к ранней беременности по методу Дебби, овладение ресторанном делом с Фионой и многое другое ждёт вас в новом сезон любимого сериалае о похождениях самой интересной семьи на свете. Галлагеры вернулись, а значит, осень в этом году скучной не будет точно!

    Продолжительность: ~ 00: 55: 00 серия
    Качество видео: HDTVRip
    Перевод: Профессиональный многоголосый закадровый -NewStudio
    Озвучка: Евгения Тихонова, Анастасия Флигина, Константин Погодаев, Александр Дасевич, Михаил Суслов
    Автор перевода: Александр Митраков
    Вид субтитров: отдельным файлом
    Язык субтитров: английский
    Видео: AVC/H.264, 1280x720 (16: 9), ~4311 Kbps
    Аудио Rus: AC3, 384 kbps, 6 ch, 48 kHz
    Аудио Eng: AC3, 384 kbps, 6 ch, 48 kHz
    ВНИМАНИЕ! В сериале присутствуют сцены с обнажённой натурой и ненормативная лексика!
    Код:
    Общее
    Shameless (US) - Бесстыжие. Сезон 7. AlexFilm. 720pShameless.US.s07e01.HDTVRip.720p.Rus.Eng.AlexFilm.mkv
    Формат : Matroska
    Версия формата : Version 4/Version 2
    Размер файла : 1, 99 Гбайт
    Продолжительность : 54 м.
    Общий поток : 5182 Кбит/сек
    Название фильма : Shameless US 7x01 @ AlexFilm
    Дата кодирования : UTC 2016-09-25 22:29:48
    Программа кодирования : mkvmerge v7.1.0 (\'Good Love\') 64bit built on Jul 27 2014 13:06:55
    Библиотека кодирования : libebml v1.3.0 + libmatroska v1.4.1
    Видео
    Идентификатор : 1
    Формат : AVC
    Формат/Информация : Advanced Video Codec
    Профиль формата :High@L4.1
    Параметр CABAC формата : Да
    Параметр ReFrames формата : 5 кадров
    Идентификатор кодека : V_MPEG4/ISO/AVC
    Продолжительность : 54 м.
    Битрейт : 4311 Кбит/сек
    Ширина : 1280 пикселей
    Высота : 720 пикселей
    Соотношение сторон : 16:9
    Режим частоты кадров : Постоянный
    Частота кадров : 23, 976 кадра/сек
    Цветовое пространство : YUV
    Субдискретизация насыщенности : 4:2:0
    Битовая глубина : 8 бит
    Тип развёртки : Прогрессивная
    Бит/(Пиксели*Кадры) : 0.195
    Размер потока : 1, 65 Гбайт (83%)
    Библиотека кодирования : x264 core 148 r2705 3f5ed56
    Настройки программы : cabac=1/ref=5/deblock=1:0:0/analyse=0x3:0x113/me=umh/subme=8/psy=1/psy_rd=1.00:0.00/mixed_ref=1/me_range=16/chroma_me=1/trellis=1/8x8dct=1/cqm=0/deadzone=21, 11/fast_pskip=1/chroma_qp_offset=-2/threads=22/lookahead_threads=3/sliced_threads=0/nr=0/decimate=1/interlaced=0/bluray_compat=0/constrained_intra=0/bframes=3/b_pyramid=2/b_adapt=2/b_bias=0/direct=3/weightb=1/open_gop=0/weightp=2/keyint=250/keyint_min=23/scenecut=40/intra_refresh=0/rc_lookahead=50/rc=crf/mbtree=1/crf=18.0/qcomp=0.60/qpmin=0/qpmax=69/qpstep=4/ip_ratio=1.40/aq=1:1.00
    Default : Да
    Forced : Нет
    Коэффициенты матрицы : BT.709
    colour_range : Limited
    Аудио #1
    Идентификатор : 2
    Формат : AC-3
    Формат/Информация : Audio Coding 3
    Расширение режима : CM (complete main)
    Параметр Endianness формата : Big
    Идентификатор кодека : A_AC3
    Продолжительность : 54 м.
    Вид битрейта : Постоянный
    Битрейт : 384 Кбит/сек
    Каналы : 6 каналов
    Расположение каналов : Front: L C R, Side: L R, LFE
    Частота : 48, 0 КГц
    Битовая глубина : 16 бит
    Метод сжатия : С потерями
    Размер потока : 151 Мбайт (7%)
    Заголовок : DD5.1 AlexFilm
    Язык : Russian
    Default : Да
    Forced : Нет
    Аудио #2
    Идентификатор : 3
    Формат : AC-3
    Формат/Информация : Audio Coding 3
    Расширение режима : CM (complete main)
    Параметр Endianness формата : Big
    Идентификатор кодека : A_AC3
    Продолжительность : 54 м.
    Вид битрейта : Постоянный
    Битрейт : 384 Кбит/сек
    Каналы : 6 каналов
    Расположение каналов : Front: L C R, Side: L R, LFE
    Частота : 48, 0 КГц
    Битовая глубина : 16 бит
    Метод сжатия : С потерями
    Размер потока : 151 Мбайт (7%)
    Заголовок : DD5.1 Original
    Язык : English
    Default : Нет
    Forced : Нет


    Скриншоты для ознакомления




    Онлайн видео Бесстыдники



    Бесстыдники/Бесстыжие/Shameless (US) (2016) HDTVRip [H.264/720p-LQ] (сезон 7, серия 1 из 12) AlexFilm (обновляемая)
    загрузка...
    Рейтинг →
     (голосов: 1, оценка 3/5, голосовать можно 1 раз )

    Другие торренты по теме:

  • Бесстыдники / Бесстыжие / Shameless (US) (2016) HDTVRip [H.264 / 720p-LQ] (сезон 6, серии 1 из 12) AlexFilm (обновляемая) скачать через торрент бесплатно
  • Бесстыдники / Бесстыжие / Shameless (US) (2016) HDTVRip (сезон 6, серии 1 из 12) AlexFilm (обновляемая) скачать через торрент бесплатно
  • Бесстыдники / Бесстыжие / Shameless (US) (2016) HDTVRip (сезон 6, серии 1-9 из 12) (AlexFilm) (обновляемая)
  • Бесстыдники / Бесстыжие / Shameless (US) (2016) HDTVRip (сезон 7, серии 1 из 12) AlexFilm (обновляемая)


    • Комментарии (0):

      Информация

      Информация

        Посетители, находящиеся в группе Гости, не могут оставлять комментарии в данной новости.

        ↓ Меню




        ↓ Опрос

        Вы добавили сайт в закладки?
        Да
        Нет


        Top 10 за месяц (Фильмы)