.
Авторизация | Регистрация
Хочешь лучшие торренты? Добавь свой email!
Добавить

Торрент скачать бесплатно

» » МакГайвер / MacGyver (2016) HDTVRip [H.264 / 720p-LQ] (сезон 1, серии 1 из 6) Victory-Films (обновляемая) торрент скачать бесплатно




    МакГайвер / MacGyver (2016) HDTVRip [H.264 / 720p-LQ] (сезон 1, серии 1 из 6) Victory-Films (обновляемая) торрент скачать бесплатно

    Опубликовал: Админ | Дата: 27-09-2016, 04:01 | Просмотров: 178

    Производство: США
    Жанр: боевик, драма, приключения
    Режиссер: Джерри Ливайн, Джеймс Ван

    Актеры
    Джордж Идс, Джастин Хайрс, Сандрин Холт, Тристин Мейс, Лукас Тилл, Селена Андусе, Билли Блэр, Рауль Колон и др.

    Описание

    История молодого человека лет двадцати, Ангуса Мака МакГайвера, который создает тайную организацию внутри правительства США, где он использует свой исключительный талант в решении неординарных проблем и обширные научные знания, чтобы спасать жизни. Следовать за ним в его рискованных миссиях по всему свету будет независимый бывших агент ЦРУ Джек Далтон. Самое интересное в это истории, что об этом Робокоп ничего не знал. Под эгидой Департамента Внешних Дел МакГайвер берется за спасение мира, вооружившись до зубов лишь смекалкой, жвачкой и скрепкой.

    Дата мировой премьеры: 23 сентября 2016
    Релиз от: Studio Victory-Films
    Продолжительность: ~00: 43: 00 серия
    Качество видео: HDTVRip
    Перевод: Многоголосый закадровый, любительский - Victory-Films
    Реклама: присутствуют видео, аудио вставки рекламы.
    Видео: AVC/H.264, 1280x720 (16: 9), ~3730 Кбит/с
    Аудио: AC-3, 2 канала, 192 Кбит/с, CBR
    Код:

    бщее
    Уникальный идентификатор : 76820763895425211460072296799178600870 (0x39CB24158A8156BF2E91D7D9B00031A6)
    Полное имя : E:Victory-FilmsМакгайвер 1 сезон любимого сериала 2016-Studio Victory-FilmsMacGyver.2016.S01E01.720p.HDTV.X264-Studio Victory-Films].mkv
    Формат : Matroska
    Версия формата : Version 2
    Размер файла : 1, 19 Гбайт
    Продолжительность : 43 м.
    Общий поток : 3890 Кбит/сек
    Дата кодирования : UTC 2016-08-31 23:24:59
    Программа кодирования : Lavf54.63.104
    Библиотека кодирования : Lavf54.63.104
    Видео
    Идентификатор : 1
    Формат : AVC
    Формат/Информация : Advanced Video Codec
    Профиль формата :Main@L3.1
    Параметр CABAC формата : Да
    Параметр ReFrames формата : 1 кадр
    Идентификатор кодека : V_MPEG4/ISO/AVC
    Продолжительность : 43 м.
    Битрейт : 3730 Кбит/сек
    Ширина : 1280 пикселей
    Высота : 720 пикселей
    Соотношение сторон : 16:9
    Режим частоты кадров : Постоянный
    Частота кадров : 23, 976 кадра/сек
    Цветовое пространство : YUV
    Субдискретизация насыщенности : 4:2:0
    Битовая глубина : 8 бит
    Тип развёртки : Прогрессивная
    Бит/(Пиксели*Кадры) : 0.169
    Размер потока : 1, 11 Гбайт (93%)
    Библиотека кодирования : x264 core 129
    Default : Да
    Forced : Нет
    Аудио
    Идентификатор : 2
    Формат : AC-3
    Формат/Информация : Audio Coding 3
    Расширение режима : CM (complete main)
    Параметр Endianness формата : Big
    Идентификатор кодека : A_AC3
    Продолжительность : 43 м.
    Вид битрейта : Постоянный
    Битрейт : 192 Кбит/сек
    Каналы : 2 канала
    Расположение каналов : Front: L R
    Частота : 48, 0 КГц
    Битовая глубина : 16 бит
    Метод сжатия : С потерями
    Размер потока : 60, 2 Мбайт (5%)
    Default : Да
    Forced : Нет


    Скриншоты для ознакомления




    Онлайн видео МакГайвер



    МакГайвер/MacGyver (2016) HDTVRip [H.264/720p-LQ] (сезон 1, серии 1 из 6) Victory-Films (обновляемая)
    загрузка...
    Рейтинг →
     (голосов: 1, оценка 3/5, голосовать можно 1 раз )

    Другие торренты по теме:

  • Секретный агент Макгайвер / MacGyver (1985-1992) DVDRip, TVRip (сезон 1-7, серии 1-121 из 139)
  • Потерянные сокровища Атлантиды / Секретный агент Макгайвер: Путь к концу света / Lost Treasure of Atlantis / MacGyver: Trail to Doomsday (1994) DVDRip [H.264] [VO]


    • Комментарии (0):

      Информация

      Информация

        Посетители, находящиеся в группе Гости, не могут оставлять комментарии в данной новости.

        ↓ Меню




        ↓ Опрос

        Вы добавили сайт в закладки?
        Да
        Нет


        Top 10 за месяц (Фильмы)