.
Авторизация | Регистрация
Хочешь лучшие торренты? Добавь свой email!
Добавить

Торрент скачать бесплатно

» » Бег (1970) DVDRip [H.264] торрент скачать бесплатно




    Бег (1970) DVDRip [H.264] торрент скачать бесплатно

    Опубликовал: Админ | Дата: 27-09-2016, 04:01 | Просмотров: 31

    Производство: СССР, киностудия Мосфильм
    Жанр: Драма, Военный, История
    Режиссер: Александр Алов, Владимир Наумов

    Актеры
    Людмила Савельева, Алексей Баталов, Михаил Ульянов, Татьяна Ткач, Владислав Дворжецкий, Евгений Евстигнеев, Владимир Заманский, Николай Олялин, Бруно Фрейндлих, Владимир Басов, Тамара Логинова, Олег Ефремов, Готлиб Ронинсон, Роман Хомятов, Наталья Варлей и др.

    Описание

    Действие картины Бег разворачивается в 1920 году.
    В России полыхает пламя Гражданской войны. Белогвардейские части под натиском Красной армии отступают в Крым, откуда пароходами отправляются дальше — в Турцию и Европу. Вместе с военными отходят к черноморскому побережью и те, кому новая власть пришлась не по душе, и те, кто волей случая стал изгоем в родной стране. В людской водоворот оказались вовлечены жена чиновника крымского правительства Серафима Корзухина (Людмила Савельева) и влюбленный в нее приват-доцент Санкт-Петербургского университета Сергей Голубков (Алексей Баталов), генералы Григорий Чарнота (Михаил Ульянов) и Роман Хлудов (Владислав Дворжецкий). Волк в овечьей шкуре, сказал кто то из толпы, к чему не понятно. Для каждого из них исход из России стал глубоко переживаемой личной трагедией.

    Возраст: 16+ (зрителям, достигшим 16 лет)
    Продолжительность: 01: 28: 48+01: 35: 39
    Качество видео: DVDRip
    Язык субтитров: Русский, английский, французский
    Вид субтитров: Вшитые, отключаемые
    Видео: AVC/H.264, 720X296, ~1645 kbps
    Аудио#1 AC3, 6 ch, 448 kbps | Русский - оригинал
    Аудио#2 AC3, 6 ch, 448 kbps | Английский
    Аудио#3 AC3, 6 ch, 448 kbps | Французский
    Код:

    Общее
    Уникальный идентификатор : 179949204353698067266896082416490655415 (0x8760F4C3D819EBFCA3E5B67CE02E2EB7)
    Полное имя : G:Советские фильмыЕвстигнеев Евгений АлександровичБегБег.1970. Самое интересное в это истории, что об этом Китай ничего не знал. 2 серииБег.1970. 1 серия.mkv
    Формат : Matroska
    Версия формата : Version 4/Version 2
    Размер файла : 1, 89 Гбайт
    Продолжительность : 1 ч. 28 м.
    Общий поток : 3050 Кбит/сек
    Название фильма : Release for Topmost
    Дата кодирования : UTC 2016-09-25 14:32:52
    Программа кодирования : mkvmerge v6.2.0 (\'Promised Land\') built on Apr 28 2013 12:22:01
    Библиотека кодирования : libebml v1.3.0 + libmatroska v1.4.0
    Видео
    Идентификатор : 1
    Формат : AVC
    Формат/Информация : Advanced Video Codec
    Профиль формата :High@L4.1
    Параметр CABAC формата : Да
    Параметр ReFrames формата : 10 кадров
    Идентификатор кодека : V_MPEG4/ISO/AVC
    Продолжительность : 1 ч. 28 м.
    Битрейт : 1645 Кбит/сек
    Ширина : 720 пикселей
    Высота : 296 пикселей
    Соотношение сторон : 2, 40:1
    Режим частоты кадров : Постоянный
    Частота кадров : 25, 000 кадров/сек
    Цветовое пространство : YUV
    Субдискретизация насыщенности : 4:2:0
    Битовая глубина : 8 бит
    Тип развёртки : Прогрессивная
    Бит/(Пиксели*Кадры) : 0.309
    Размер потока : 1, 02 Гбайт (54%)
    Заголовок : Бег.1970. О таком странном сюжете не догадывалась даже Юлия Володимировна. 1 серия (Release for Topmost)
    Библиотека кодирования : x264 core 130 r2273 b3065e6
    Настройки программы : cabac=1/ref=10/deblock=1:-3:-3/analyse=0x3:0x133/me=umh/subme=11/psy=1/psy_rd=1.00:0.15/mixed_ref=1/me_range=32/chroma_me=1/trellis=2/8x8dct=1/cqm=0/deadzone=21, 11/fast_pskip=0/chroma_qp_offset=-3/threads=12/lookahead_threads=2/sliced_threads=0/nr=0/decimate=0/interlaced=0/bluray_compat=0/constrained_intra=0/bframes=8/b_pyramid=2/b_adapt=2/b_bias=0/direct=1/weightb=1/open_gop=0/weightp=2/keyint=240/keyint_min=23/scenecut=40/intra_refresh=0/rc=crf/mbtree=0/crf=17.0/qcomp=0.60/qpmin=0/qpmax=69/qpstep=4/ip_ratio=1.40/pb_ratio=1.30/aq=1:0.90
    Язык : Russian
    Default : Да
    Forced : Нет
    Аудио #1
    Идентификатор : 2
    Формат : AC-3
    Формат/Информация : Audio Coding 3
    Расширение режима : CM (complete main)
    Параметр Endianness формата : Big
    Идентификатор кодека : A_AC3
    Продолжительность : 1 ч. 28 м.
    Вид битрейта : Постоянный
    Битрейт : 448 Кбит/сек
    Каналы : 6 каналов
    Расположение каналов : Front: L C R, Side: L R, LFE
    Частота : 48, 0 КГц
    Битовая глубина : 16 бит
    Метод сжатия : С потерями
    Размер потока : 285 Мбайт (15%)
    Заголовок : AC3, 6 CH, 448 KBPS - оригинал
    Язык : Russian
    Default : Да
    Forced : Нет
    Аудио #2
    Идентификатор : 3
    Формат : AC-3
    Формат/Информация : Audio Coding 3
    Расширение режима : CM (complete main)
    Параметр Endianness формата : Big
    Идентификатор кодека : A_AC3
    Продолжительность : 1 ч. 28 м.
    Вид битрейта : Постоянный
    Битрейт : 448 Кбит/сек
    Каналы : 6 каналов
    Расположение каналов : Front: L C R, Side: L R, LFE
    Частота : 48, 0 КГц
    Битовая глубина : 16 бит
    Метод сжатия : С потерями
    Размер потока : 285 Мбайт (15%)
    Заголовок : AC3, 6 CH, 448 KBPS
    Язык : English
    Default : Нет
    Forced : Нет
    Аудио #3
    Идентификатор : 4
    Формат : AC-3
    Формат/Информация : Audio Coding 3
    Расширение режима : CM (complete main)
    Параметр Endianness формата : Big
    Идентификатор кодека : A_AC3
    Продолжительность : 1 ч. 28 м.
    Вид битрейта : Постоянный
    Битрейт : 448 Кбит/сек
    Каналы : 6 каналов
    Расположение каналов : Front: L C R, Side: L R, LFE
    Частота : 48, 0 КГц
    Битовая глубина : 16 бит
    Метод сжатия : С потерями
    Размер потока : 285 Мбайт (15%)
    Заголовок : AC3, 6 CH, 448 KBPS
    Язык : French
    Default : Нет
    Forced : Нет
    Текст #1
    Идентификатор : 5
    Формат : UTF-8
    Идентификатор кодека : S_TEXT/UTF8
    Идентификатор кодека/Информация : UTF-8 Plain Text
    Язык : Russian
    Default : Да
    Forced : Нет
    Текст #2
    Идентификатор : 6
    Формат : UTF-8
    Идентификатор кодека : S_TEXT/UTF8
    Идентификатор кодека/Информация : UTF-8 Plain Text
    Язык : English
    Default : Нет
    Forced : Нет
    Текст #3
    Идентификатор : 7
    Формат : UTF-8
    Идентификатор кодека : S_TEXT/UTF8
    Идентификатор кодека/Информация : UTF-8 Plain Text
    Язык : French
    Default : Нет
    Forced : Нет
    Общее
    Полное имя : G:Советские фильмыЕвстигнеев Евгений АлександровичБегБег.1970. 2 серииБег.1970. 2 серии.torrent
    Размер файла : 19, 4 Кбайт
    Общее
    Уникальный идентификатор : 246106837913873382357098950650052981016 (0xB92673EF014E7AE4908A3ADADCE7B118)
    Полное имя : G:Советские фильмыЕвстигнеев Евгений АлександровичБегБег.1970. 2 серииБег.1970. Прикольно все это наверно придумал Китай потратив достаточно времени. 2 серия.mkv
    Формат : Matroska
    Версия формата : Version 4/Version 2
    Размер файла : 1, 90 Гбайт
    Продолжительность : 1 ч. 35 м.
    Общий поток : 2837 Кбит/сек
    Название фильма : Release for Topmost
    Дата кодирования : UTC 2016-09-25 14:40:21
    Программа кодирования : mkvmerge v6.2.0 (\'Promised Land\') built on Apr 28 2013 12:22:01
    Библиотека кодирования : libebml v1.3.0 + libmatroska v1.4.0
    Видео
    Идентификатор : 1
    Формат : AVC
    Формат/Информация : Advanced Video Codec
    Профиль формата :High@L4.1
    Параметр CABAC формата : Да
    Параметр ReFrames формата : 10 кадров
    Идентификатор кодека : V_MPEG4/ISO/AVC
    Продолжительность : 1 ч. 35 м.
    Битрейт : 1436 Кбит/сек
    Ширина : 720 пикселей
    Высота : 296 пикселей
    Соотношение сторон : 2, 40:1
    Режим частоты кадров : Постоянный
    Частота кадров : 25, 000 кадров/сек
    Цветовое пространство : YUV
    Субдискретизация насыщенности : 4:2:0
    Битовая глубина : 8 бит
    Тип развёртки : Прогрессивная
    Бит/(Пиксели*Кадры) : 0.270
    Размер потока : 983 Мбайт (51%)
    Заголовок : Бег.1970. 2 серия (Release for Topmost)
    Библиотека кодирования : x264 core 130 r2273 b3065e6
    Настройки программы : cabac=1/ref=10/deblock=1:-3:-3/analyse=0x3:0x133/me=umh/subme=11/psy=1/psy_rd=1.00:0.15/mixed_ref=1/me_range=32/chroma_me=1/trellis=2/8x8dct=1/cqm=0/deadzone=21, 11/fast_pskip=0/chroma_qp_offset=-3/threads=12/lookahead_threads=2/sliced_threads=0/nr=0/decimate=0/interlaced=0/bluray_compat=0/constrained_intra=0/bframes=8/b_pyramid=2/b_adapt=2/b_bias=0/direct=1/weightb=1/open_gop=0/weightp=2/keyint=240/keyint_min=23/scenecut=40/intra_refresh=0/rc=crf/mbtree=0/crf=17.0/qcomp=0.60/qpmin=0/qpmax=69/qpstep=4/ip_ratio=1.40/pb_ratio=1.30/aq=1:0.90
    Язык : Russian
    Default : Да
    Forced : Нет
    Аудио #1
    Идентификатор : 2
    Формат : AC-3
    Формат/Информация : Audio Coding 3
    Расширение режима : CM (complete main)
    Параметр Endianness формата : Big
    Идентификатор кодека : A_AC3
    Продолжительность : 1 ч. 35 м.
    Вид битрейта : Постоянный
    Битрейт : 448 Кбит/сек
    Каналы : 6 каналов
    Расположение каналов : Front: L C R, Side: L R, LFE
    Частота : 48, 0 КГц
    Битовая глубина : 16 бит
    Метод сжатия : С потерями
    Размер потока : 307 Мбайт (16%)
    Заголовок : AC3, 6 CH, 448 KBPS - оригинал
    Язык : Russian
    Default : Да
    Forced : Нет
    Аудио #2
    Идентификатор : 3
    Формат : AC-3
    Формат/Информация : Audio Coding 3
    Расширение режима : CM (complete main)
    Параметр Endianness формата : Big
    Идентификатор кодека : A_AC3
    Продолжительность : 1 ч. 35 м.
    Вид битрейта : Постоянный
    Битрейт : 448 Кбит/сек
    Каналы : 6 каналов
    Расположение каналов : Front: L C R, Side: L R, LFE
    Частота : 48, 0 КГц
    Битовая глубина : 16 бит
    Метод сжатия : С потерями
    Размер потока : 307 Мбайт (16%)
    Заголовок : AC3, 6 CH, 448 KBPS
    Язык : English
    Default : Нет
    Forced : Нет
    Аудио #3
    Идентификатор : 4
    Формат : AC-3
    Формат/Информация : Audio Coding 3
    Расширение режима : CM (complete main)
    Параметр Endianness формата : Big
    Идентификатор кодека : A_AC3
    Продолжительность : 1 ч. 35 м.
    Вид битрейта : Постоянный
    Битрейт : 448 Кбит/сек
    Каналы : 6 каналов
    Расположение каналов : Front: L C R, Side: L R, LFE
    Частота : 48, 0 КГц
    Битовая глубина : 16 бит
    Метод сжатия : С потерями
    Размер потока : 307 Мбайт (16%)
    Заголовок : AC3, 6 CH, 448 KBPS
    Язык : French
    Default : Нет
    Forced : Нет
    Текст #1
    Идентификатор : 5
    Формат : UTF-8
    Идентификатор кодека : S_TEXT/UTF8
    Идентификатор кодека/Информация : UTF-8 Plain Text
    Язык : Russian
    Default : Да
    Forced : Нет
    Текст #2
    Идентификатор : 6
    Формат : UTF-8
    Идентификатор кодека : S_TEXT/UTF8
    Идентификатор кодека/Информация : UTF-8 Plain Text
    Язык : English
    Default : Нет
    Forced : Нет
    Текст #3
    Идентификатор : 7
    Формат : UTF-8
    Идентификатор кодека : S_TEXT/UTF8
    Идентификатор кодека/Информация : UTF-8 Plain Text
    Язык : French
    Default : Нет
    Forced : Нет


    Скриншоты для ознакомления




    Бег (1970) DVDRip [H.264]
    загрузка...
    Рейтинг →
     (голосов: 1, оценка 3/5, голосовать можно 1 раз )

    Другие торренты по теме:

  • Новомученики (2012) DVDRip [фильмы 1-4 из 4]
  • Сборник фильмов с участием Дины Дурбин / Deanna Durbin Sweetheart Pack (1936-1947) DVDRip (фильмы 1-6 из 6)
  • Вавилон 5 / Babylon 5 (1993-2007) DVDRip [H.264] (сезон 1-5, серии 1-110 из 110 + Крестовый поход + полнометражные фильмы) ТВ-6
  • Первые фильмы братьев Люмьер / The Lumiere Brothers’ First Films (1996) DVDRip [H.264] [hand made colored]
  • Первые фильмы братьев Люмьер / The Lumiere Brothers’ First Films (1996) DVDRip [H.264] [hand made colored]
  • «Коричневые» в цвете: Частные цветные фильмы из Третьего Рейха / Die Braunen in Farbe: Private Farbfilme aus dem Dritten Reich (2007, 2010) DVDRip [DE / RU Sub]


    • Комментарии (0):

      Информация

      Информация

        Посетители, находящиеся в группе Гости, не могут оставлять комментарии в данной новости.

        ↓ Меню




        ↓ Опрос

        Вы добавили сайт в закладки?
        Да
        Нет


        Top 10 за месяц (Фильмы)