.
Авторизация | Регистрация
Хочешь лучшие торренты? Добавь свой email!
Добавить

Торрент скачать бесплатно

» » Изгоняющий дьявола / The Exorcist (2016) HDTVRip (сезон 1, серии 1 из 13) OMSKBIRD (обновляемая) торрент скачать бесплатно




    Изгоняющий дьявола / The Exorcist (2016) HDTVRip (сезон 1, серии 1 из 13) OMSKBIRD (обновляемая) торрент скачать бесплатно

    Опубликовал: Админ | Дата: 26-09-2016, 04:01 | Просмотров: 123

    Производство: США/Morgan Creek Productions, New Neighborhood, 20th Century Fox Television
    Жанр: ужасы, триллер
    Режиссер: Майкл Нанкин, Джейсон Энслер, Руперт Уайатт

    Актеры
    Альфонсо Эррера, Бен Дэниелс, Джина Дэвис, Ханна Касулка, Брианна Хоуи, Алан Рак, Музам Маккар, Френсис Гуинан и др.

    Описание

    Психологический триллер, события которого перенесены в современность, повествует о смиренном, самоотверженном отце Томасе Ортеге и пылком божьем воине отце Маркусе Лэнге, которым, невзирая на разность взглядов, предстоит объединиться в неравной битве со злом в виде демонической одержимости в одной семье.

    Дата мировой премьеры: 24 сентября 2016
    Продолжительность: ~00: 44: 00 серия
    Качество видео: HDTVrip
    Перевод: Многоголосый закадровый, профессиональный | OMSKBIRD
    Реклама: присутствуют аудио вставки рекламы
    Видео: Xvid, 720x400 (16: 9), ~1698 kbps
    Аудио # 1 Rus: AC-3, 6 ch, 448 kbps, CBR - многоголосый закадровый
    Аудио # 2 Eng: AC-3, 6 ch, 448 kbps, CBR - оригинал
    Код:

    General
    Complete name : F:Мои ДокументыВидеоРАЗДАЧИЭкзорцистThe Exorcist S01 HDTVrip (OMSKBIRD)The Exorcist S01E01 HDTVrip (OMSKBIRD).avi
    Format : AVI
    Format/Info : Audio Video Interleave
    File size : 845 MiB
    Duration : 45mn 16s
    Overall bit rate : 2 608 Kbps
    Writing application : VirtualDubMod 1.5.10.3 |www.virtualdub-fr.org|| (build 2550/release)
    Writing library : VirtualDubMod build 2550/release
    Video
    ID : 0
    Format : MPEG-4 Visual
    Format profile : Advanced Simple@L5
    Format settings, BVOP : 1
    Format settings, QPel : No
    Format settings, GMC : No warppoints
    Format settings, Matrix : Default (MPEG)
    Codec ID : XVID
    Codec ID/Hint : XviD
    Duration : 45mn 16s
    Bit rate : 1 698 Kbps
    Width : 720 pixels
    Height : 400 pixels
    Display aspect ratio : 16:9
    Frame rate : 23.976 fps
    Color space : YUV
    Chroma subsampling : 4:2:0
    Bit depth : 8 bits
    Scan type : Progressive
    Compression mode : Lossy
    Bits/(Pixel*Frame) : 0.246
    Stream size : 550 MiB (65%)
    Writing library : XviD 1.2.1 (UTC 2008-12-04)
    Audio #1
    ID : 1
    Format : AC-3
    Format/Info : Audio Coding 3
    Mode extension : CM (complete main)
    Format settings, Endianness : Big
    Codec ID : 2000
    Duration : 45mn 16s
    Bit rate mode : Constant
    Bit rate : 448 Kbps
    Channel(s) : 6 channels
    Channel positions : Front: L C R, Side: L R, LFE
    Sampling rate : 48.0 KHz
    Bit depth : 16 bits
    Compression mode : Lossy
    Stream size : 145 MiB (17%)
    Alignment : Split accross interleaves
    Interleave, duration : 42 ms (1.00 video frame)
    Interleave, preload duration : 500 ms
    Audio #2
    ID : 2
    Format : AC-3
    Format/Info : Audio Coding 3
    Mode extension : CM (complete main)
    Format settings, Endianness : Big
    Codec ID : 2000
    Duration : 45mn 16s
    Bit rate mode : Constant
    Bit rate : 448 Kbps
    Channel(s) : 6 channels
    Channel positions : Front: L C R, Side: L R, LFE
    Sampling rate : 48.0 KHz
    Bit depth : 16 bits
    Compression mode : Lossy
    Stream size : 145 MiB (17%)
    Alignment : Split accross interleaves
    Interleave, duration : 42 ms (1.00 video frame)
    Interleave, preload duration : 500 ms


    Скриншоты для ознакомления




    Онлайн видео Изгоняющий дьявола



    Изгоняющий дьявола/The Exorcist (2016) HDTVRip (сезон 1, серии 1 из 13) OMSKBIRD (обновляемая)
    загрузка...
    Рейтинг →
     (голосов: 1, оценка 4/5, голосовать можно 1 раз )

    Другие торренты по теме:

  • Изгоняющий дьявола / The Exorcist (1973 / 2000) [Extended Directors Cut] BDRip [720p] скачать через торрент бесплатно
  • Изгоняющий дьявола / The Exorcist (1973 / 2000) [Extended Directors Cut] BDRip [720p] скачать через торрент бесплатно
  • Изгоняющий дьявола / The Exorcist (1973 / 2000) BDRip [H.264 / 720p-LQ] [Extended Directors Cut] [Hi10P] скачать через торрент бесплатно
  • Изгоняющий дьявола III / The Exorcist III (1990) HDRip скачать через торрент бесплатно
  • Изгоняющий дьявола: Начало / Exorcist: The Beginning (2004) HDRip [H.264] скачать через торрент бесплатно
  • Изгоняющий дьявола: Приквел / Dominion - Prequel to the Exorcist (2005) HDRip [H.264] скачать через торрент бесплатно
  • Изгоняющий дьявола 2: Еретик / Exorcist 2: The Heretic (1977) HDRip [H.264] скачать через торрент бесплатно
  • Уильям Питер Блэтти | Изгоняющий дьявола (2013) [MP3]


    • Комментарии (0):

      Информация

      Информация

        Посетители, находящиеся в группе Гости, не могут оставлять комментарии в данной новости.

        ↓ Меню




        ↓ Опрос

        Вы добавили сайт в закладки?
        Да
        Нет


        Top 10 за месяц (Фильмы)