.
Авторизация | Регистрация
Хочешь лучшие торренты? Добавь свой email!
Добавить

Торрент скачать бесплатно

» » Приключения Присциллы, королевы пустыни / The Adventures of Priscilla, Queen of the Desert (1994) BDRip [H.264 / 720p] [EN / RU, En SUB] торрент скачать бесплатно




    Приключения Присциллы, королевы пустыни / The Adventures of Priscilla, Queen of the Desert (1994) BDRip [H.264 / 720p] [EN / RU, En SUB] торрент скачать бесплатно

    Опубликовал: Админ | Дата: 24-09-2016, 04:00 | Просмотров: 13

    Производство: Австралия. PolyGram Filmed Entertainment
    Жанр: Комедия, Мелодрама, Музыкальный
    Режиссер: Стефан Эллиотт

    Актеры
    Хьюго Уивинг, Гай Пирс, Теренс Стэмп, Ребел Расселл, Джон Кэйси, Джун Мэри Беннет, Мюррэй Дэвис, Фрэнк Корнелиус, Боб Бойс, Лейтон Пикен

    Описание

    Трое друзей — гей-трансвестит, открытый гей и транссексуал — едут выступать с музыкальным шоу из Сиднея в Элис Спрингс — город в центре Австралии. В это путешествие они отправляются на автобусе, который назвали Присцилла.

    Возраст: 18+ (зрителям, достигшим 18 лет. запрещено для детей)
    Рейтинг MPAA: R (лицам до 17 лет обязательно присутствие взрослого)
    Продолжительность: 01: 43: 21
    Качество видео: BDRip
    Перевод: Отсутствует
    Язык озвучки: Английский
    Язык субтитров: Русский, Английский
    Вид субтитров: Вшитые
    Видео: AVC/H.264, 1280x552, ~4 545 Kbps
    Аудио: DTS, 6 ch, 1 509 Kbps, CBR
    Код:

    General
    Unique ID : 192182343341150422508053951657218443510 (0x9094F9155E9915F499DE5BC157BC88F6)
    Complete name : F:СкачкиThe.Adventures.of.Priscilla.Queen.of.the.Desert.1994.720p.mkv
    Format : Matroska
    Format version : Version 1
    File size : 4.37 GiB
    Duration : 1h 43mn
    Overall bit rate : 6 057 Kbps
    Encoded date : UTC 2016-09-11 17:10:54
    Writing application : mkvmerge v2.5.3 (\'Boogie\') built on Mar 7 2009 15:00:41
    Writing library : libebml v0.7.7 + libmatroska v0.8.1
    Video
    ID : 1
    Format : AVC
    Format/Info : Advanced Video Codec
    Format profile :High@L4.1
    Format settings, CABAC : Yes
    Format settings, ReFrames : 5 frames
    Codec ID : V_MPEG4/ISO/AVC
    Duration : 1h 43mn
    Bit rate : 4 545 Kbps
    Width : 1 280 pixels
    Height : 552 pixels
    Display aspect ratio : 2.35:1
    Frame rate mode : Constant
    Frame rate : 23.976 (24000/1001) fps
    Color space : YUV
    Chroma subsampling : 4:2:0
    Bit depth : 8 bits
    Scan type : Progressive
    Bits/(Pixel*Frame) : 0.268
    Stream size : 3.20 GiB (73%)
    Writing library : x264 core 115 r1995 c1e60b9
    Encoding settings : cabac=1/ref=5/deblock=1:0:0/analyse=0x3:0x113/me=umh/subme=8/psy=1/psy_rd=1.00:0.00/mixed_ref=1/me_range=16/chroma_me=1/trellis=1/8x8dct=1/cqm=0/deadzone=21, 11/fast_pskip=1/chroma_qp_offset=-2/threads=12/sliced_threads=0/nr=0/decimate=1/interlaced=0/bluray_compat=0/constrained_intra=0/bframes=3/b_pyramid=2/b_adapt=2/b_bias=0/direct=3/weightb=1/open_gop=0/weightp=2/keyint=240/keyint_min=24/scenecut=40/intra_refresh=0/rc_lookahead=50/rc=2pass/mbtree=1/bitrate=4545/ratetol=1.0/qcomp=0.60/qpmin=0/qpmax=69/qpstep=4/cplxblur=20.0/qblur=0.5/ip_ratio=1.40/aq=1:1.00
    Language : English
    Default : Yes
    Forced : No
    Audio
    ID : 2
    Format : DTS
    Format/Info : Digital Theater Systems
    Mode : 16
    Format settings, Endianness : Big
    Codec ID : A_DTS
    Duration : 1h 43mn
    Bit rate mode : Constant
    Bit rate : 1 509 Kbps
    Channel(s) :
    Channel positions : Front: L C R, Side: L R, LFE
    Sampling rate : 48.0 KHz
    Frame rate : 93.750 fps (512 spf)
    Bit depth : 24 bits
    Compression mode : Lossy
    Delay relative to video : 11ms
    Stream size : 1.09 GiB (25%)
    Language : English
    Default : Yes
    Forced : No
    Text #1
    ID : 3
    Format : UTF-8
    Codec ID : S_TEXT/UTF8
    Codec ID/Info : UTF-8 Plain Text
    Default : Yes
    Forced : No
    Text #2
    ID : 4
    Format : UTF-8
    Codec ID : S_TEXT/UTF8
    Codec ID/Info : UTF-8 Plain Text
    Language : English
    Default : No
    Forced : No
    Menu
    00:00:00.000 : en:00:00:00.000
    00:03:45.892 : en:00:03:45.892
    00:04:34.566 : en:00:04:34.566
    00:06:49.534 : en:00:06:49.534
    00:09:02.333 : en:00:09:02.333
    00:10:02.227 : en:00:10:02.227
    00:12:09.979 : en:00:12:09.979
    00:16:26.152 : en:00:16:26.152
    00:20:16.257 : en:00:20:16.257
    00:23:20.649 : en:00:23:20.649
    00:27:25.269 : en:00:27:25.269
    00:28:26.705 : en:00:28:26.705
    00:31:32.933 : en:00:31:32.933
    00:39:57.103 : en:00:39:57.103
    00:45:49.580 : en:00:45:49.580
    00:46:52.226 : en:00:46:52.226
    00:49:12.616 : en:00:49:12.616
    00:51:16.365 : en:00:51:16.365
    00:55:58.063 : en:00:55:58.063
    00:57:38.997 : en:00:57:38.997
    01:00:31.336 : en:01:00:31.336
    01:02:51.476 : en:01:02:51.476
    01:09:53.439 : en:01:09:53.439
    01:12:37.061 : en:01:12:37.061
    01:16:04.268 : en:01:16:04.268
    01:18:58.442 : en:01:18:58.442
    01:25:27.831 : en:01:25:27.831
    01:28:05.614 : en:01:28:05.614
    01:32:03.893 : en:01:32:03.893
    01:34:35.086 : en:01:34:35.086
    01:36:36.207 : en:01:36:36.207
    01:39:52.403 : en:01:39:52.403


    Скриншоты для ознакомления




    Онлайн видео Приключения Присциллы, королевы пустыни



    Приключения Присциллы, королевы пустыни/The Adventures of Priscilla, Queen of the Desert (1994) BDRip [H.264/720p] [EN/RU, En SUB]
    загрузка...
    Рейтинг →
     (голосов: 1, оценка 3/5, голосовать можно 1 раз )

    Другие торренты по теме:

  • Приключения Присциллы, королевы пустыни / The Adventures of Priscilla, Queen of the Desert (1994) HDTV [H.264 / 1080i] скачать через торрент бесплатно


    • Комментарии (0):

      Информация

      Информация

        Посетители, находящиеся в группе Гости, не могут оставлять комментарии в данной новости.

        ↓ Меню




        ↓ Опрос

        Вы добавили сайт в закладки?
        Да
        Нет


        Top 10 за месяц (Фильмы)