.
Авторизация | Регистрация
Хочешь лучшие торренты? Добавь свой email!
Добавить

Торрент скачать бесплатно

» » Нарко / Нарки / Барыги / Narcos (2016) WEBRip [H.264 / 720p-LQ] (сезон 2, серии 1-10 из 10) NewStudio торрент скачать бесплатно




    Нарко / Нарки / Барыги / Narcos (2016) WEBRip [H.264 / 720p-LQ] (сезон 2, серии 1-10 из 10) NewStudio торрент скачать бесплатно

    Опубликовал: Админ | Дата: 23-09-2016, 16:12 | Просмотров: 9

    Производство: США/Dynamo, Gaumont International Television
    Жанр: криминал, драма
    Режиссер: Андрес Байс, Джозеф Владыка, Херардо Наранхо

    Актеры
    Вагнер Моура, Бойд Холбрук, Педро Паскаль, Джоанна Кристи, Морис Комт, Паулина Гайтан, Диего Катаньо, Даниэль Кеннеди, Ричард Т. Джонс и др.

    Описание

    Преступную деятельность будущий влиятельнейший наркобарон Колумбии Пабло Эскобар начал ещё в детстве с воровства и мошенничества, после он перешёл на рэкет, вооружённые налёты и похищение людей. Когда вокруг Пабло сформировалась мощная группировка он решил расширяться в сторону самого перспективного и бездонного рынка - поставки колумбийского кокаина в Соединённые Штаты, где основной проблемой Управления по борьбе с наркотиками до этого момента были лишь добродушные хиппи с их марихуаной...

    Возраст: 18+ (зрителям, достигшим 18 лет. запрещено для детей)
    Продолжительность: ~00: 52: 00 серия
    Качество видео: WEBRip
    Перевод: Многоголосый закадровый, профессиональный - NewStudio (ненормативная лексика)
    Вид субтитров: вшитые, неотключаемые (на испанскую речь)
    Язык субтитров: английский
    Внимание! Присутствует ненормативная лексика.
    Видео: H.264/AVC, 1280x720 (16: 9), ~3400 Kbps
    Аудио #1 Rus: MP3, 48.0 KHz, 2 ch, 128 Kbps, CBR - многоголосый закадровый
    Аудио #2 Eng: AC3, 48.0 KHz, 6 ch, 384 Kbps, CBR - оригинал
    Код:

    General
    Unique ID : 189714846972915840947708047402389960231 (0x8EB9C01EABB46EF68E2D7A9DF6837627)
    Complete name : E:Нарко (сезон любимого сериала 2) Narcos (2016) WEBRip 720p - NewStudioNarcos.s02e04.WEBRip.720p.NewStudio.mkv
    Format : Matroska
    Format version : Version 4/Version 2
    File size : 1.82 GiB
    Duration : 55 min
    Overall bit rate : 4 657 kb/s
    Encoded date : UTC 2016-09-21 17:33:29
    Writing application : mkvmerge v8.9.0 (\'Father Daughter\') 64bit
    Writing library : libebml v1.3.3 + libmatroska v1.4.4
    Cover : Yes
    Attachments : cover.jpg
    Video
    ID : 1
    Format : AVC
    Format/Info : Advanced Video Codec
    Format profile :High@L4.1
    Format settings, CABAC : Yes
    Format settings, ReFrames : 5 frames
    Codec ID : V_MPEG4/ISO/AVC
    Duration : 55 min
    Bit rate : 3 887 kb/s
    Width : 1 280 pixels
    Height : 720 pixels
    Display aspect ratio : 16:9
    Frame rate mode : Constant
    Frame rate : 23.976 (24000/1001) FPS
    Color space : YUV
    Chroma subsampling : 4:2:0
    Bit depth : 8 bits
    Scan type : Progressive
    Bits/(Pixel*Frame) : 0.176
    Stream size : 1.52 GiB (83%)
    Writing library : x264 core 148 r2705 3f5ed56
    Encoding settings : cabac=1/ref=5/deblock=1:-3:-3/analyse=0x3:0x113/me=umh/subme=8/psy=1/psy_rd=1.00:0.00/mixed_ref=1/me_range=16/chroma_me=1/trellis=1/8x8dct=1/cqm=0/deadzone=21, 11/fast_pskip=1/chroma_qp_offset=-2/threads=12/lookahead_threads=2/sliced_threads=0/nr=0/decimate=1/interlaced=0/bluray_compat=0/constrained_intra=0/bframes=3/b_pyramid=2/b_adapt=2/b_bias=0/direct=3/weightb=1/open_gop=0/weightp=2/keyint=250/keyint_min=23/scenecut=40/intra_refresh=0/rc_lookahead=50/rc=crf/mbtree=1/crf=18.0/qcomp=0.60/qpmin=0/qpmax=69/qpstep=4/ip_ratio=1.40/aq=1:1.00
    Language : English
    Default : Yes
    Forced : No
    Color range : Limited
    Matrix coefficients : BT.709
    Audio #1
    ID : 2
    Format : MPEG Audio
    Format version : Version 1
    Format profile : Layer 3
    Mode : Joint stereo
    Mode extension : MS Stereo
    Codec ID : A_MPEG/L3
    Codec ID/Hint : MP3
    Duration : 55 min
    Bit rate mode : Constant
    Bit rate : 128 kb/s
    Channel(s) : 2 channels
    Sampling rate : 48.0 kHz
    Frame rate : 41.667 FPS (1152 spf)
    Compression mode : Lossy
    Stream size : 51.3 MiB (3%)
    Title : NewStudio
    Language : Russian
    Default : Yes
    Forced : No
    Audio #2
    ID : 3
    Format : AC-3
    Format/Info : Audio Coding 3
    Mode extension : CM (complete main)
    Format settings, Endianness : Big
    Codec ID : A_AC3
    Duration : 55 min
    Bit rate mode : Constant
    Bit rate : 640 kb/s
    Channel(s) : 6 channels
    Channel positions : Front: L C R, Side: L R, LFE
    Sampling rate : 48.0 kHz
    Frame rate : 31.250 FPS (1536 spf)
    Compression mode : Lossy
    Stream size : 256 MiB (14%)
    Language : English
    Default : No
    Forced : No


    Скриншоты для ознакомления




    Онлайн видео Нарко



    Нарко/Нарки/Барыги/Narcos (2016) WEBRip [H.264/720p-LQ] (сезон 2, серии 1-10 из 10) NewStudio
    загрузка...
    Рейтинг →
     (голосов: 1, оценка 3/5, голосовать можно 1 раз )

    Другие торренты по теме:

  • Нарко / Нарки / Барыги / Narcos (2016) WEBRip [H.264 / 1080p] (сезон 2, серии 1 из 10) LostFilm (обновляемая)
  • Нарко / Нарки / Барыги / Narcos (2016) WEBRip (сезон 2, серии 1 из 10) LostFilm (обновляемая)
  • Нарко / Нарки / Барыги / Narcos (2016) WEBRip [H.264 / 720p-LQ] (сезон 2, серии 1-10 из 10) Jetvis Studio
  • Нарко / Нарки / Барыги / Narcos (2016) WEBRip (сезон 2, серии 1-10 из 10) NewStudio
  • Нарко / Нарки / Барыги / Narcos (2015-2016) WEBRip [H.264] (сезон 1-2, серии 1-20 из 20) LostFilm [MP4|1280x720] [AD]
  • Нарко / Нарки / Барыги / Narcos (2017) WEBRip [H.264] (сезон 3, серии 1-4 из 10) Baibako (обновляемая)
  • Нарко / Нарки / Барыги / Narcos (2017) WEBRip [H.264 / 1080p-LQ] (сезон 3, серии 1-10 из 10) NewStudio
  • Нарко / Нарки / Барыги / Narcos (2017) WEBRip [H.264 / 720p-LQ] (сезон 3, серии 1-10 из 10) NewStudio


    • Комментарии (0):

      Информация

      Информация

        Посетители, находящиеся в группе Гости, не могут оставлять комментарии в данной новости.

        ↓ Меню




        ↓ Опрос

        Вы добавили сайт в закладки?
        Да
        Нет


        Top 10 за месяц (Фильмы)