.
Авторизация | Регистрация
Хочешь лучшие торренты? Добавь свой email!
Добавить

Торрент скачать бесплатно

» » Внутреннее расследование (2014) SATRip [H.264] (серии 1-4 из 16) (обновляемая) торрент скачать бесплатно




    Внутреннее расследование (2014) SATRip [H.264] (серии 1-4 из 16) (обновляемая) торрент скачать бесплатно

    Опубликовал: Админ | Дата: 21-09-2016, 04:00 | Просмотров: 28

    Производство: Россия/Форвард фильм
    Жанр: детектив, боевик, криминал
    Режиссер: Вадим Саетгалиев

    Актеры
    Дмитрий Певцов, Сергей Власов, Сергей Мардарь, Владимир Богданов, Алексей Лысенко, Андрей Родимов, Борис Чистяков, Филипп Чевычелов, Виталий Жигалин и др.

    Описание

    Новая захватывающая история о нелегкой судьбе начальника убойного отдела Рустема Зайнулина. Современная полиция. Кто в ней – честный мент? Кто - оборотень? Зайнулина обвиняют в убийстве своего подчиненного - агента под прикрытием. Самое интересное в это истории, что об этом Чак Норрис ничего не знал. Накануне этого убийства Зайнуллин узнает от своего агента где скрывается криминальный авторитет Низамов. Время пошло, сказал кто то из толпы, к чему не понятно. Этот бандит уже давно разыскивается за убийства и Зайнуллин бросается по следу. Но почти сразу его задерживают сотрудники управления собственной безопасности (УСБ). Зачем начальнику убойного отдела понадобилось убивать своего коллегу, так ли уж прав глава отдела спецопераций Латунин, который преследует Зайнулина?

    Возраст: 16+ (зрителям, достигшим 16 лет)
    Продолжительность: ~00: 46: 00 серия
    Качество видео: SATRip
    Видео: AVC/H.264, 720х400 (16: 9), ~1500 Кбит/сек
    Аудио: AC-3, 2 канала, 192 Кбит/сек, CBR
    Код:

    Общее
    Уникальный идентификатор : 234639859154359496098377514693141931466 (0xB085FE3B185339E7A68E4D3D7F7F25CA)
    Полное имя : J:Внутреннее расследование1 серия_Внутреннее расследование_rip by_Aleksan55.mkv
    Формат : Matroska
    Версия формата : Version 2
    Размер файла : 560 Мбайт
    Продолжительность : 46 м.
    Общий поток : 1694 Кбит/сек
    Дата кодирования : UTC 2016-09-19 13:33:11
    Программа кодирования : mkvmerge v7.8.0 (\'River Man\') 32bit built on Apr 3 2015 12:11:22
    Библиотека кодирования : libebml v1.3.1 + libmatroska v1.4.2
    Видео
    Идентификатор : 1
    Формат : AVC
    Формат/Информация : Advanced Video Codec
    Профиль формата :High@L4.1
    Параметр CABAC формата : Да
    Параметр ReFrames формата : 12 кадров
    Идентификатор кодека : V_MPEG4/ISO/AVC
    Продолжительность : 46 м.
    Битрейт : 1500 Кбит/сек
    Ширина : 720 пикселей
    Высота : 400 пикселей
    Соотношение сторон : 16:9
    Режим частоты кадров : Постоянный
    Частота кадров : 25, 000 кадров/сек
    Цветовое пространство : YUV
    Субдискретизация насыщенности : 4:2:0
    Битовая глубина : 8 бит
    Тип развёртки : Прогрессивная
    Бит/(Пиксели*Кадры) : 0.208
    Размер потока : 485 Мбайт (87%)
    Библиотека кодирования : x264 core 148 r2638 7599210
    Настройки программы : cabac=1/ref=12/deblock=1:-2:-2/analyse=0x3:0x133/me=umh/subme=9/psy=1/psy_rd=1.00:0.00/mixed_ref=0/me_range=32/chroma_me=1/trellis=2/8x8dct=1/cqm=0/deadzone=21, 11/fast_pskip=0/chroma_qp_offset=-2/threads=3/lookahead_threads=3/sliced_threads=0/nr=0/decimate=0/interlaced=0/bluray_compat=0/constrained_intra=0/bframes=12/b_pyramid=2/b_adapt=1/b_bias=0/direct=3/weightb=1/open_gop=0/weightp=2/keyint=250/keyint_min=25/scenecut=40/intra_refresh=0/rc_lookahead=40/rc=2pass/mbtree=1/bitrate=1500/ratetol=1.0/qcomp=0.90/qpmin=0/qpmax=29/qpstep=4/cplxblur=20.0/qblur=0.5/ip_ratio=1.10/aq=1:1.20
    Default : Да
    Forced : Нет
    Цветовой диапазон : Limited
    Основные цвета : BT.601 PAL
    Характеристики трансфера : BT.470 System B, BT.470 System G
    Коэффициенты матрицы : BT.601
    Аудио
    Идентификатор : 2
    Формат : AC-3
    Формат/Информация : Audio Coding 3
    Расширение режима : CM (complete main)
    Параметр Endianness формата : Big
    Идентификатор кодека : A_AC3
    Продолжительность : 46 м.
    Вид битрейта : Постоянный
    Битрейт : 192 Кбит/сек
    Каналы : 2 канала
    Расположение каналов : Front: L R
    Частота : 48, 0 КГц
    Метод сжатия : С потерями
    Размер потока : 63, 4 Мбайт (11%)
    Default : Да
    Forced : Нет


    Скриншоты для ознакомления




    Онлайн видео Внутреннее расследование (2014) SATRip [H.264] (серии 1



    Внутреннее расследование (2014) SATRip [H.264] (серии 1-4 из 16) (обновляемая)
    загрузка...
    Рейтинг →
     (голосов: 1, оценка 5/5, голосовать можно 1 раз )

    Другие торренты по теме:

  • Внутреннее расследование (2014) SATRip [Серия 1-2 из 16] (Обновляемая)
  • Внутреннее расследование (2014) SATRip (серии 1-2 из 16) (обновляемая) скачать через торрент бесплатно
  • Внутреннее расследование (2014) HDTVRip (сезон 1, серии 1-16 из 16)
  • Внутреннее расследование (2014) HDTV [H.264 / 1080i-LQ] (серии 1-16 из 16)


    • Комментарии (0):

      Информация

      Информация

        Посетители, находящиеся в группе Гости, не могут оставлять комментарии в данной новости.

        ↓ Меню




        ↓ Опрос

        Вы добавили сайт в закладки?
        Да
        Нет


        Top 10 за месяц (Фильмы)