.
Авторизация | Регистрация
Хочешь лучшие торренты? Добавь свой email!
Добавить

Торрент скачать бесплатно

» » Разрушение / Demolition (2015) BDRip [H.264 / 720p] торрент скачать бесплатно




    Разрушение / Demolition (2015) BDRip [H.264 / 720p] торрент скачать бесплатно

    Опубликовал: Админ | Дата: 19-09-2016, 04:01 | Просмотров: 22

    Производство: США, Black Label Media, Mr. Mudd, Right of Way Films, Sidney Kimmel Entertainment
    Жанр: Драма, Комедия
    Режиссер: Жан-Марк Валле

    Актеры
    Джейк Джилленхол, Наоми Уоттс, Крис Купер, Джуда Льюис, С.Дж. Уилсон, Полли Дрэйпер, Мэлаки Клири, Дебра Монк, Хезер Линд, Уасс М. Стивенс, Блэйр Брукс, Бен Коул, Брендан Дулинг, Джеймс Колби, Альфредо Нарцисо ...

    Описание

    Когда банкир Дэвис узнал, что его жена мертва, он захотел купить шоколадный батончик в торговом автомате, но тот оказался сломан. Переживая горе, Дэвис начинает крушить дом, мебель, машину, строчить жалобы в обслуживающую торговые автоматы фирму. Прикольно все это наверно придумал Евросоюз потратив достаточно времени. А в письмах он… рассказывает историю своей любви. Скоро ему отвечает Карен, менеджер компании, но сможет ли она спасти Дэвиса из эмоциональной пропасти?..

    Возраст: 18+ (зрителям, достигшим 18 лет. запрещено для детей)
    Рейтинг MPAA: R (лицам до 17 лет обязательно присутствие взрослого)
    Премьера (мир): 10 сентября 2015, ...
    Премьера (РФ): 30 июня 2016, Парадиз

    Релиз от: ExKinoRay
    Продолжительность: 01: 40: 26
    Качество видео: BDRip 720p
    Перевод: Дублированный (Лицензия BD RUS)
    Вид субтитров: Вшитые, отключаемые
    Язык субтитров: Английский
    Видео: AVC/H.264, 1280x536, (2.35: 1), 7845 Kbps, 23, 976 fps
    Аудио: AC3, 6 ch, 640 kbps - Русский
    Аудио: AC3, 6 ch, 640 kbps - Английский
    Код:

    Общее
    Уникальный идентификатор : 236473109134393601623048057831855503346 (0xB1E7106EEA3AA9D18B5D2EB8C76837F2)
    Полное имя : G:VideoDemolition.2015.D.BDRip.720p.ExKinoRay.mkv
    Формат : Matroska
    Версия формата : Version 4/Version 2
    Размер файла : 6, 43 Гбайт
    Продолжительность : 1 ч. 40 м.
    Общий поток : 9123 Кбит/сек
    Название фильма : ***селезень***
    Дата кодирования : UTC 2016-09-17 03:12:16
    Программа кодирования : mkvmerge v8.3.0 (\'Over the Horizon\') 64bit
    Библиотека кодирования : libebml v1.3.1 + libmatroska v1.4.2
    Видео
    Идентификатор : 1
    Формат : AVC
    Формат/Информация : Advanced Video Codec
    Профиль формата :High@L4.1
    Параметр CABAC формата : Да
    Параметр ReFrames формата : 12 кадров
    Идентификатор кодека : V_MPEG4/ISO/AVC
    Продолжительность : 1 ч. 40 м.
    Битрейт : 7845 Кбит/сек
    Ширина : 1280 пикселей
    Высота : 536 пикселей
    Соотношение сторон : 2, 40:1
    Режим частоты кадров : Постоянный
    Частота кадров : 23, 976 (24000/1001) кадра/сек
    Цветовое пространство : YUV
    Субдискретизация насыщенности : 4:2:0
    Битовая глубина : 8 бит
    Тип развёртки : Прогрессивная
    Бит/(Пиксели*Кадры) : 0.477
    Размер потока : 5, 53 Гбайт (86%)
    Заголовок : ***селезень***
    Библиотека кодирования : x264 core 146 r2538 121396c
    Настройки программы : cabac=1/ref=12/deblock=1:-2:-2/analyse=0x3:0x133/me=umh/subme=10/psy=1/psy_rd=1.00:0.00/mixed_ref=1/me_range=32/chroma_me=1/trellis=2/8x8dct=1/cqm=0/deadzone=21, 11/fast_pskip=0/chroma_qp_offset=-2/threads=12/lookahead_threads=1/sliced_threads=0/nr=0/decimate=0/interlaced=0/bluray_compat=0/constrained_intra=0/bframes=6/b_pyramid=2/b_adapt=2/b_bias=0/direct=3/weightb=1/open_gop=0/weightp=2/keyint=230/keyint_min=22/scenecut=40/intra_refresh=0/rc_lookahead=60/rc=2pass/mbtree=1/bitrate=7845/ratetol=1.0/qcomp=0.60/qpmin=0/qpmax=69/qpstep=4/cplxblur=20.0/qblur=0.5/vbv_maxrate=50000/vbv_bufsize=50000/nal_hrd=none/filler=0/ip_ratio=1.40/aq=1:1.00
    Язык : English
    Default : Да
    Forced : Нет
    Аудио #1
    Идентификатор : 2
    Формат : AC-3
    Формат/Информация : Audio Coding 3
    Расширение режима : CM (complete main)
    Параметр Endianness формата : Big
    Идентификатор кодека : A_AC3
    Продолжительность : 1 ч. 40 м.
    Вид битрейта : Постоянный
    Битрейт : 640 Кбит/сек
    Каналы : 6 каналов
    Расположение каналов : Front: L C R, Side: L R, LFE
    Частота : 48, 0 КГц
    Частота кадров : 31, 250 кадров/сек (1536 spf)
    Метод сжатия : С потерями
    Задержка видео : 20 с.
    Размер потока : 460 Мбайт (7%)
    Заголовок : Dub [License]
    Язык : Russian
    Default : Да
    Forced : Нет
    Аудио #2
    Идентификатор : 3
    Формат : AC-3
    Формат/Информация : Audio Coding 3
    Расширение режима : CM (complete main)
    Параметр Endianness формата : Big
    Идентификатор кодека : A_AC3
    Продолжительность : 1 ч. 40 м.
    Вид битрейта : Постоянный
    Битрейт : 640 Кбит/сек
    Каналы : 6 каналов
    Расположение каналов : Front: L C R, Side: L R, LFE
    Частота : 48, 0 КГц
    Частота кадров : 31, 250 кадров/сек (1536 spf)
    Метод сжатия : С потерями
    Размер потока : 462 Мбайт (7%)
    Заголовок : Original
    Язык : English
    Default : Нет
    Forced : Нет
    Текст #1
    Идентификатор : 4
    Формат : UTF-8
    Идентификатор кодека : S_TEXT/UTF8
    Идентификатор кодека/Информация : UTF-8 Plain Text
    Продолжительность : 1 ч. 39 м.
    Битрейт : 51 бит/сек
    Count of elements : 1256
    Размер потока : 37, 5 Кбайт (0%)
    Заголовок : Full
    Язык : English
    Default : Нет
    Forced : Нет
    Текст #2
    Идентификатор : 5
    Формат : UTF-8
    Идентификатор кодека : S_TEXT/UTF8
    Идентификатор кодека/Информация : UTF-8 Plain Text
    Продолжительность : 1 ч. 40 м.
    Битрейт : 63 бит/сек
    Count of elements : 1440
    Размер потока : 46, 6 Кбайт (0%)
    Заголовок : SDH
    Язык : English
    Default : Нет
    Forced : Нет
    Меню
    00:00:00.000 : en:Chapter 01
    00:03:59.906 : en:Chapter 02
    00:07:50.220 : en:Chapter 03
    00:14:23.071 : en:Chapter 04
    00:18:36.574 : en:Chapter 05
    00:23:29.992 : en:Chapter 06
    00:27:39.449 : en:Chapter 07
    00:32:51.261 : en:Chapter 08
    00:38:16.586 : en:Chapter 09
    00:43:58.177 : en:Chapter 10
    00:47:32.433 : en:Chapter 11
    00:54:25.721 : en:Chapter 12
    00:57:55.305 : en:Chapter 13
    01:02:06.806 : en:Chapter 14
    01:06:10.884 : en:Chapter 15
    01:11:01.549 : en:Chapter 16
    01:17:48.247 : en:Chapter 17
    01:23:16.783 : en:Chapter 18
    01:31:48.294 : en:Chapter 19
    01:35:52.705 : en:Chapter 20


    Скриншоты для ознакомления




    Онлайн видео Разрушение



    Разрушение/Demolition (2015) BDRip [H.264/720p]
    загрузка...
    Рейтинг →
     (голосов: 1, оценка 4/5, голосовать можно 1 раз )

    Другие торренты по теме:

  • Разрушение / Demolition (2015) WEB-DLRip
  • Разрушение / Demolition (2016)
  • Разрушение / Demolition (2015) WEB-DL [H.264 / 1080p-LQ] [EN / EN Sub]
  • Разрушение / Demolition (2015) WEB-DL [H.264 / 720p-LQ]
  • Разрушение / Demolition (2015) WEB-DL [H.264 / 1080p-LQ]
  • Разрушение / Demolition (2015) WEB-DLRip
  • Разрушение / Demolition (2015) BDRip [H.264 / 720p]
  • Разрушение / Demolition (2015) BDRip [H.264 / 1080p]


    • Комментарии (0):

      Информация

      Информация

        Посетители, находящиеся в группе Гости, не могут оставлять комментарии в данной новости.

        ↓ Меню




        ↓ Опрос

        Вы добавили сайт в закладки?
        Да
        Нет


        Top 10 за месяц (Фильмы)