.
Авторизация | Регистрация
Хочешь лучшие торренты? Добавь свой email!
Добавить

Торрент скачать бесплатно

» » Долина волков - Западня / Kurtlar vadisi - Pusu (2016) HDTVRip (сезон 9, серии 1-7 (244-250) из ) Марат Абу-Айша (обновляемая) торрент скачать бесплатно




    Долина волков - Западня / Kurtlar vadisi - Pusu (2016) HDTVRip (сезон 9, серии 1-7 (244-250) из ) Марат Абу-Айша (обновляемая) торрент скачать бесплатно

    Опубликовал: Админ | Дата: 18-09-2016, 04:04 | Просмотров: 32

    Производство: Турция/Pana Film
    Жанр: боевик, триллер, драма, приключения
    Режиссер: Садуллах Сентюрк, Онур Тан, Алиджан Гебес, Доган Юмит Караджа

    Актеры
    Гюркан Уйгун, Кенан Чобан, Осман Сойкут, Бахадыр Ток, Неджати Шашмаз, Нефисе Каратай, Сонмез Атасой, Эрхан Уфак, Эрдем Эргюней, Керем Фиртина и др.

    Описание

    Сериал Долина волков: Западня” начинается с покушения на бизнесмена Чагры Тороса, которое устроено террористической организацией. Исполнители покушения были задержаны. Полат Алемдар уверен, что за официально объявленными причинами покушения скрываются совсем другие силы и поводы. Он хочет найти настоящих преступников и делает все, чтобы и это дело не было закрыто до того, как они будут найдены. Для поиска виновных он направляется по следу самого важного оружия века - денег. Самое интересное в это истории, что об этом Гарри Поттер ничего не знал. Шаг за шагом Полат собирает улики и пытается наладить прямой контакт с семьей Торосов.

    Продолжительность: ~ 01: 50: 00 серия
    Качество видео: HDTVRip,
    Перевод: Одноголосый закадровый, любительский - Марат Абу-Айша
    Видео: Xvid, 720x400 (16: 9), ~1647 kbps
    Аудио: MP3, 3 ch, 192 kbps
    Код:

    Формат : AVI
    Формат/Информация : Audio Video Interleave
    Размер файла : 1, 20 Гбайт
    Продолжительность : 1 ч. 32 м.
    Общий поток : 1845 Кбит/сек
    Библиотека кодирования : VirtualDub build 35491/release
    Видео
    Идентификатор : 0
    Формат : MPEG-4 Visual
    Профиль формата : Advanced Simple@L5
    Параметр BVOP формата : 2
    Параметр QPel формата : Нет
    Параметр GMC формата : Без точки перехода
    Параметр матрицы формата : Default (H.263)
    Идентификатор кодека : XVID
    Идентификатор кодека/Подсказка : XviD
    Продолжительность : 1 ч. 32 м.
    Битрейт : 1644 Кбит/сек
    Ширина : 720 пикселей
    Высота : 400 пикселей
    Соотношение сторон : 16:9
    Частота кадров : 25, 000 кадров/сек
    Цветовое пространство : YUV
    Субдискретизация насыщенности : 4:2:0
    Битовая глубина : 8 бит
    Тип развёртки : Прогрессивная
    Метод сжатия : С потерями
    Бит/(Пиксели*Кадры) : 0.228
    Размер потока : 1, 07 Гбайт (89%)
    Библиотека кодирования : XviD 73
    Аудио
    Идентификатор : 1
    Формат : MPEG Audio
    Версия формата : Version 1
    Профиль формата : Layer 3
    Режим : Joint stereo
    Идентификатор кодека : 55
    Идентификатор кодека/Подсказка : MP3
    Продолжительность : 1 ч. Вашими молитвами, сказал кто то из толпы, к чему не понятно. 32 м.
    Вид битрейта : Постоянный
    Битрейт : 192 Кбит/сек
    Каналы : 2 канала
    Частота : 44, 1 КГц
    Метод сжатия : С потерями
    Размер потока : 127 Мбайт (10%)
    Выравнивание : Разделение по промежуткам
    Продолжительность промежутка : 40 мс. (1, 00 видеокадр)
    Время предзагрузки промежутка : 500 мс.
    9 сезон любимого сериала условно.


    Скриншоты для ознакомления




    Онлайн видео Долина волков - Западня



    Долина волков - Западня/Kurtlar vadisi - Pusu (2016) HDTVRip (сезон 9, серии 1-7 (244-250) из ) Марат Абу-Айша (обновляемая)
    загрузка...
    Рейтинг →
     (голосов: 1, оценка 4/5, голосовать можно 1 раз )

    Другие торренты по теме:

  • Долина волков - Западня / Kurtlar vadisi - Pusu (2014) SATRip (Сезон 8, серии 1-2 (203-204) из ) [turok1990] (обновляемая)
  • Долина волков - Западня / Kurtlar vadisi - Pusu (2014) SATRip (сезон 8, серии 1-41 (203-243) ) (turok1990, Марат Абу-Айша)
  • Долина волков - Западня / Kurtlar vadisi - Pusu (2016) HDTVRip (сезон 9, серии 1-18 (244-261) из ) Марат Абу-Айша (обновляемая)


    • Комментарии (0):

      Информация

      Информация

        Посетители, находящиеся в группе Гости, не могут оставлять комментарии в данной новости.

        ↓ Меню




        ↓ Опрос

        Вы добавили сайт в закладки?
        Да
        Нет


        Top 10 за месяц (Фильмы)