.
Авторизация | Регистрация
Хочешь лучшие торренты? Добавь свой email!
Добавить

Торрент скачать бесплатно

» » Слепая зона / Слепое пятно / Blindspot (2016) WEB-DLRip (сезон 2, серии 1 из ) LostFilm (обновляемая) торрент скачать бесплатно




    Слепая зона / Слепое пятно / Blindspot (2016) WEB-DLRip (сезон 2, серии 1 из ) LostFilm (обновляемая) торрент скачать бесплатно

    Опубликовал: Админ | Дата: 17-09-2016, 04:00 | Просмотров: 21

    Производство: США/Quinn\'s House, Berlanti Productions, Universal Television
    Жанр: триллер, драма, криминал, детектив
    Режиссер: Маркос Сига, Марк Пеллингтон, Роб Шейденгланц

    Актеры
    Джейми Александер, Салливан Степлтон, Одри Эспарза, Роб Браун, Эшли Джонсон, Аквели Роач, Марианн Жан-Батист, Келли П. Уильямс, Франсуа Арно, Джордана Спиро и др.

    Описание

    Во втором сезон любимого сериалае популярного американского сериала Слепая зона продолжается загадочная история найденной на Таймс-сквер в большой черной спортивной сумке женщины, тело которой испещрено загадочными татуировками. Сотрудники ФБР занимаются расшифровкой знаков на теле потерявшей память девушки, и постепенно начинает раскручиваться клубок из убийств, похищений...

    Возраст: 16+ (зрителям, достигшим 16 лет)
    Продолжительность: ~00: 43: 00 серия
    Качество видео: WEB-DLRip
    Перевод: Многоголосый закадровый, профессиональный -LostFilm
    Видео: XviD, 720x400 (16: 9), ~1500 kbps
    Аудио Rus: MP3, 48, 0 kHz, 2 ch, 128 kbps — многоголосый закадровый
    Аудио Eng: MP3, 48, 0 kHz, 2 ch, 128 kbps — оригинал
    Код:

    Общее
    Полное имя : D:Слепая зона (сезон любимого сериала 2) Blindspot (2016) WEB-DLRip - LostFilmBlindspot.S02E01.WEBDLRip.Rus.Eng.DV.LostFilm.avi
    Формат : AVI
    Формат/Информация : Audio Video Interleave
    Размер файла : 546 Мбайт
    Продолжительность : 43 м. 3 с.
    Общий поток : 1772 Кбит/сек
    Название фильма : Blindspot.S02E01.WEBDLRip.Rus.Eng.DV.LostFilm/NNM-Club
    Программа кодирования : VirtualDubModRus 1.5.10.2 (build 2542/release)
    Библиотека кодирования : VirtualDubMod build 2542/release
    Видео
    Идентификатор : 0
    Формат : MPEG-4 Visual
    Профиль формата : Advanced Simple@L5
    Параметр BVOP формата : 2
    Параметр QPel формата : Нет
    Параметр GMC формата : Без точки перехода
    Параметр матрицы формата : Default (H.263)
    Идентификатор кодека : XVID
    Идентификатор кодека/Подсказка : XviD
    Продолжительность : 43 м. 3 с.
    Битрейт : 1502 Кбит/сек
    Ширина : 720 пикселей
    Высота : 400 пикселей
    Соотношение сторон : 16:9
    Частота кадров : 23, 976 (24000/1001) кадра/сек
    Цветовое пространство : YUV
    Субдискретизация насыщенности : 4:2:0
    Битовая глубина : 8 бит
    Тип развёртки : Прогрессивная
    Метод сжатия : С потерями
    Бит/(Пиксели*Кадры) : 0.218
    Размер потока : 463 Мбайт (85%)
    Заголовок : Rip by DriverV/NNM-Club
    Библиотека кодирования : XviD 64
    Аудио #1
    Идентификатор : 1
    Формат : MPEG Audio
    Версия формата : Version 1
    Профиль формата : Layer 3
    Режим : Joint stereo
    Расширение режима : MS Stereo
    Идентификатор кодека : 55
    Идентификатор кодека/Подсказка : MP3
    Продолжительность : 43 м. 3 с.
    Вид битрейта : Постоянный
    Битрейт : 128 Кбит/сек
    Каналы : 2 канала
    Частота : 48, 0 КГц
    Метод сжатия : С потерями
    Размер потока : 39, 4 Мбайт (7%)
    Выравнивание : Соединение по промежуткам
    Продолжительность промежутка : 42 мс. (1, 00 видеокадр)
    Время предзагрузки промежутка : 504 мс.
    Аудио #2
    Идентификатор : 2
    Формат : MPEG Audio
    Версия формата : Version 1
    Профиль формата : Layer 3
    Режим : Joint stereo
    Расширение режима : MS Stereo
    Идентификатор кодека : 55
    Идентификатор кодека/Подсказка : MP3
    Продолжительность : 43 м. 3 с.
    Вид битрейта : Постоянный
    Битрейт : 128 Кбит/сек
    Каналы : 2 канала
    Частота : 48, 0 КГц
    Метод сжатия : С потерями
    Размер потока : 39, 4 Мбайт (7%)
    Выравнивание : Соединение по промежуткам
    Продолжительность промежутка : 42 мс. (1, 00 видеокадр)
    Время предзагрузки промежутка : 504 мс.


    Скриншоты для ознакомления




    Онлайн видео Слепая зона



    Слепая зона/Слепое пятно/Blindspot (2016) WEB-DLRip (сезон 2, серии 1 из ) LostFilm (обновляемая)
    загрузка...
    Рейтинг →
     (голосов: 1, оценка 3/5, голосовать можно 1 раз )

    Другие торренты по теме:

  • Слепое пятно / Слепая зона / Blindspot (2015) HDTV [H.264 / 720p-LQ] (сезон 1, серия 1 из ) (NewStudio) (обновляемая) скачать через торрент бесплатно
  • Слепое пятно / Слепая зона / Blindspot (2015) HDTVRip (сезон 1, серии 1 из ) NewStudio (обновляемая) скачать через торрент бесплатно
  • Слепое пятно / Слепая зона / Blindspot (2015) HDTV [H.264 / 1080p] (сезон 1, серия 1 из ) NewStudio (обновляемая) скачать через торрент бесплатно
  • Слепое пятно / Слепая зона / Blindspot (2015) HDTVRip [H.264] (Сезон 1, серия 1 из ) NewStudio [MP4|720x400] скачать через торрент бесплатно
  • Слепое пятно / Слепая зона / Blindspot (2015) HDTVRip (сезон 1, серии 1 из ) AlexFilm (обновляемая) скачать через торрент бесплатно
  • Слепая зона / Blindspot (2015) WEB-DL [H.264 / 720p-LQ] (сезон 1, серии 1 из 8()) BaibaKo (обновляемая) скачать через торрент бесплатно
  • Слепая зона / Blindspot (2015) WEB-DLRip [H.264] (Сезон 1, серия 1 из 8()) BaibaKo [MP4|720x400] скачать через торрент бесплатно
  • Слепое пятно / Слепая зона / Blindspot (2015) WEB-DLRip (сезон 1, серии 1-2 из ) LostFilm (обновляемая) скачать через торрент бесплатно


    • Комментарии (0):

      Информация

      Информация

        Посетители, находящиеся в группе Гости, не могут оставлять комментарии в данной новости.

        ↓ Меню




        ↓ Опрос

        Вы добавили сайт в закладки?
        Да
        Нет


        Top 10 за месяц (Фильмы)