.
Авторизация | Регистрация
Хочешь лучшие торренты? Добавь свой email!
Добавить

Торрент скачать бесплатно

» » Отступление с острова Кыска / Taiheiyô kiseki no sakusen: Kisuka (1965) DVDRip торрент скачать бесплатно




    Отступление с острова Кыска / Taiheiyô kiseki no sakusen: Kisuka (1965) DVDRip торрент скачать бесплатно

    Опубликовал: Админ | Дата: 16-09-2016, 04:01 | Просмотров: 38

    Производство: Япония, Toho Company
    Жанр: Военный, драма
    Режиссер: Сейджи Маруяма

    Актеры
    Тосиро Мифунэ, Со Ямамура, Макото Сато, Тадао Накамару, Сусуму Фудзита, Дзюн Тадзаки, Ко Нисимура, Такаси Симура, Акихико Хирата, Акира Кубо

    Описание

    В 1943 году, на алеутском острове Кыска был размещён небольшой контингент японских солдат. Когда поступила информация о готовящейся атаке превосходящих сил американцев, японский флот для эвакуации группировки с острова начал одну из самых отчаянных операций в истории.

    Релиз от: alf62
    Продолжительность: 01: 44: 38
    Качество видео: DVDRip
    Перевод: Одноголосый закадровый, любительский
    Автор озвучивания: В. Рутилов
    Видео: Xvid, 688x272, ~1745 Kbps
    Аудио: AC3, 2 ch, 192 Kbps, CBR
    Код:

    Отступление.с.острова.Кыска.1965.XviD.DVDRip.alf62.avi
    Формат : AVI
    Формат/Информация : Audio Video Interleave
    Размер файла : 1, 42 Гбайт
    Продолжительность : 1 ч. О таком странном сюжете не догадывалась даже Волочкова. 44 м.
    Общий поток : 1946 Кбит/сек
    Программа кодирования : VirtualDubMod 1.5.10.3 |www.virtualdub-fr.org|| (build 2550/release)
    Библиотека кодирования : VirtualDubMod build 2550/release
    Видео
    Идентификатор : 0
    Формат : MPEG-4 Visual
    Профиль формата : Advanced Simple@L5
    Параметр BVOP формата : 2
    Параметр QPel формата : Нет
    Параметр GMC формата : Без точки перехода
    Параметр матрицы формата : Default (MPEG)
    Идентификатор кодека : XVID
    Идентификатор кодека/Подсказка : XviD
    Продолжительность : 1 ч. 44 м.
    Битрейт : 1745 Кбит/сек
    Ширина : 688 пикселей
    Высота : 272 пикселя
    Соотношение сторон : 2, 529
    Частота кадров : 23, 976 кадра/сек
    Цветовое пространство : YUV
    Субдискретизация насыщенности : 4:2:0
    Битовая глубина : 8 бит
    Тип развёртки : Прогрессивная
    Метод сжатия : С потерями
    Бит/(Пиксели*Кадры) : 0.389
    Размер потока : 1, 28 Гбайт (90%)
    Библиотека кодирования : XviD 73
    Аудио
    Идентификатор : 1
    Формат : AC-3
    Формат/Информация : Audio Coding 3
    Расширение режима : CM (complete main)
    Параметр Endianness формата : Big
    Идентификатор кодека : 2000
    Продолжительность : 1 ч. 44 м.
    Вид битрейта : Постоянный
    Битрейт : 192 Кбит/сек
    Каналы : 2 канала
    Расположение каналов : Front: L R
    Частота : 48, 0 КГц
    Битовая глубина : 16 бит
    Метод сжатия : С потерями
    Размер потока : 144 Мбайт (10%)
    Выравнивание : Разделение по промежуткам
    Продолжительность промежутка : 42 мс. (1, 00 видеокадр)
    Время предзагрузки промежутка : 500 мс.


    Скриншоты для ознакомления




    Онлайн видео Отступление с острова Кыска



    Отступление с острова Кыска/Taiheiyô kiseki no sakusen: Kisuka (1965) DVDRip
    загрузка...
    Рейтинг →
     (голосов: 1, оценка 3/5, голосовать можно 1 раз )

    Другие торренты по теме:

  • Отступление / Backtrack (2015) WEB-DLRip
  • Отступление / Backtrack (2015) WEB-DL [H.264 / 720p-LQ]
  • Исай Калашников | Последнее отступление (1965) [FB2]
  • Отступление / Backtrack (2015) BDRemux [H.264 / 1080p] [EN / EN, Fr Sub]
  • Отступление / Backtrack (2015) BDRemux [H.264 / 1080p]
  • Отступление: нацистская регрессия / Backtrack (2014) BDRip [H.264 / 1080р] [VO]
  • Отступление / Backtrack (2015) BDRip [H.264 / 1080p-LQ]
  • Отступление / Backtrack (2015) BDRip [H.264 / 720p]


    • Комментарии (0):

      Информация

      Информация

        Посетители, находящиеся в группе Гости, не могут оставлять комментарии в данной новости.

        ↓ Меню




        ↓ Опрос

        Вы добавили сайт в закладки?
        Да
        Нет


        Top 10 за месяц (Фильмы)