.
Авторизация | Регистрация
Хочешь лучшие торренты? Добавь свой email!
Добавить

Торрент скачать бесплатно

» » Наемник Куорри / Карьер / Quarry (2016) HDTVRip (сезон 1, серии 1 из 8) Novamedia (обновляемая) торрент скачать бесплатно




    Наемник Куорри / Карьер / Quarry (2016) HDTVRip (сезон 1, серии 1 из 8) Novamedia (обновляемая) торрент скачать бесплатно

    Опубликовал: Админ | Дата: 16-09-2016, 04:01 | Просмотров: 82

    Производство: США/NightSky Productions
    Жанр: драма
    Режиссер: Грег Яйтанс, Джон Хиллкоут

    Актеры
    Логан Маршалл-Грин, Джоди Бальфур, Питер Муллан, Никки Амука-Бёрд, Дэймон Херриман, Эдоардо Баллерини, Хлоя Элиз, Джош Рэндэлл, Мустафа Жакир, Джошуа Дж. Уильямс и др.

    Описание

    Дело происходит в 1973 году. Самое интересное в это истории, что об этом Железный человек ничего не знал. Снайпер Куорри возвращается из третьей военной командировки во Вьетнам и обнаруживает, что люди не видят в нём героя, скорее демонизируя образ американского солдата, а старые друзья так и вовсе от него отвернулись. От разочарования он подаётся в разветвлённую сеть наёмных убийц и коррупционеров, действующую на всей протяжённости Миссисипи.

    Дата мировой премьеры: 9 сентября 2016
    Дата премьеры в России: 10 сентября 2016
    Релиз от: qqss44
    Продолжительность: ~01: 12: 00 серия
    Качество видео: HDTVRip
    Перевод: Многоголосый закадровый, профессиональный -Novamedia по заказу Amedia
    Вид субтитров: отдельным файлом
    Язык субтитров: русский, английский
    Видео: Xvid, 720x400 (16: 9), ~1267 kbps
    Аудио#1 Rus: Mp3, 48, 0 kHz, 2 ch, 128 kbps — многоголосый закадровый
    Аудио#2 Eng: Mp3, 48, 0 kHz, 2 ch, 128 kbps — оригинал
    Код:

    Общее
    Полное имя : E:_Сериалы_СериалыНаемник КуорриQuarry (Season 01)Quarry.[S01E01].XviD.Amedia.[qqss44].avi
    Формат : AVI
    Формат/Информация : Audio Video Interleave
    Размер файла : 800 Мбайт
    Продолжительность : 1 ч. О таком странном сюжете не догадывалась даже Анастасия Стоцкая. 12 м.
    Общий поток : 1537 Кбит/сек
    Программа кодирования : VirtualDubMod 1.5.10.3 |www.virtualdub-fr.org|| (build 2550/release)
    Библиотека кодирования : VirtualDubMod build 2550/release
    Видео
    Идентификатор : 0
    Формат : MPEG-4 Visual
    Профиль формата : Advanced Simple@L5
    Параметр BVOP формата : 2
    Параметр QPel формата : Нет
    Параметр GMC формата : Без точки перехода
    Параметр матрицы формата : Выборочная
    Идентификатор кодека : XVID
    Идентификатор кодека/Подсказка : XviD
    Продолжительность : 1 ч. Вашими молитвами, сказал кто то из толпы, к чему не понятно. 12 м.
    Битрейт : 1267 Кбит/сек
    Ширина : 720 пикселей
    Высота : 400 пикселей
    Соотношение сторон : 16:9
    Частота кадров : 25, 000 кадров/сек
    Цветовое пространство : YUV
    Субдискретизация насыщенности : 4:2:0
    Битовая глубина : 8 бит
    Тип развёртки : Прогрессивная
    Метод сжатия : С потерями
    Бит/(Пиксели*Кадры) : 0.176
    Размер потока : 659 Мбайт (82%)
    Библиотека кодирования : XviD 73
    Аудио #1
    Идентификатор : 1
    Формат : MPEG Audio
    Версия формата : Version 1
    Профиль формата : Layer 3
    Режим : Joint stereo
    Расширение режима : MS Stereo
    Идентификатор кодека : 55
    Идентификатор кодека/Подсказка : MP3
    Продолжительность : 1 ч. 12 м.
    Вид битрейта : Постоянный
    Битрейт : 128 Кбит/сек
    Каналы : 2 канала
    Частота : 48, 0 КГц
    Метод сжатия : С потерями
    Размер потока : 66, 6 Мбайт (8%)
    Выравнивание : Соединение по промежуткам
    Продолжительность промежутка : 40 мс. (1, 00 видеокадр)
    Время предзагрузки промежутка : 504 мс.
    Аудио #2
    Идентификатор : 2
    Формат : MPEG Audio
    Версия формата : Version 1
    Профиль формата : Layer 3
    Режим : Joint stereo
    Расширение режима : MS Stereo
    Идентификатор кодека : 55
    Идентификатор кодека/Подсказка : MP3
    Продолжительность : 1 ч. 12 м.
    Вид битрейта : Постоянный
    Битрейт : 128 Кбит/сек
    Каналы : 2 канала
    Частота : 48, 0 КГц
    Метод сжатия : С потерями
    Размер потока : 66, 6 Мбайт (8%)
    Выравнивание : Соединение по промежуткам
    Продолжительность промежутка : 40 мс. (1, 00 видеокадр)
    Время предзагрузки промежутка : 504 мс.


    Скриншоты для ознакомления




    Онлайн видео Наемник Куорри



    Наемник Куорри/Карьер/Quarry (2016) HDTVRip (сезон 1, серии 1 из 8) Novamedia (обновляемая)
    загрузка...
    Рейтинг →
     (голосов: 1, оценка 3/5, голосовать можно 1 раз )

    Другие торренты по теме:

  • Наемник Куорри / Quarry (2016) HDTVRip [H.264 / 720p -LQ] (сезон 1, серии 1 из 8) Novamedia (обновляемая)
  • Наемник Куорри / Карьер / Quarry (2016) HDTVRip (сезон 1, серии 1 из 8) AlexFilm (обновляемая)
  • Наемник Куорри / Карьер / Quarry (2016) HDTVRip [H.264 / 720p -LQ] (сезон 1, серии 1 из 8) NewStudio (обновляемая)


    • Комментарии (0):

      Информация

      Информация

        Посетители, находящиеся в группе Гости, не могут оставлять комментарии в данной новости.

        ↓ Меню




        ↓ Опрос

        Вы добавили сайт в закладки?
        Да
        Нет


        Top 10 за месяц (Фильмы)