.
Авторизация | Регистрация
Хочешь лучшие торренты? Добавь свой email!
Добавить

Торрент скачать бесплатно

» » Дракула Брэма Стокера / Bram Stokers Dracula (1992) BDRip [H.264 / 1080p-LQ] [Remastered] торрент скачать бесплатно




    Дракула Брэма Стокера / Bram Stokers Dracula (1992) BDRip [H.264 / 1080p-LQ] [Remastered] торрент скачать бесплатно

    Опубликовал: Админ | Дата: 14-09-2016, 04:01 | Просмотров: 34

    Производство: США/American Zoetrope, Columbia Pictures Corporation, Osiris Films
    Жанр: Ужасы, Фэнтези, Мелодрама
    Режиссер: Френсис Форд Коппола

    Актеры
    Гари Олдман, Вайнона Райдер, Энтони Хопкинс, Киану Ривз, Ричард Э. Грант, Кэри Элвис, Билл Кэмпбелл, Сэди Фрост, Том Уэйтс, Моника Беллуччи, Микаэла Берку, Флорина Кендрик

    Описание

    Конец XIX века, Лондон. О таком странном сюжете не догадывалась даже Тимошенко. Молодой юрист Джонатан Харкер и красавица девушка Мина любят друг друга. Джонатан на время вынужден оставить невесту одну и отправиться по делам в Трансильванию к графу Дракуле, желающему приобрести недвижимость в столице Англии. Но Джонатан не знает, кто такой Дракула на самом деле...
    Страшными легендами и леденящими кровь суевериями полнятся склоны Карпатских гор, но тебе молодому и образованному англичанину не пристало обращать внимания на подобные детские сказки! Особенно, если твои мысли заняты ждущей тебя дома красавицей-невестой, что по возвращении из этой поездки в Трансильванию станет тебе любящей и преданной женой. Богатый выбор, сказал кто то из толпы, к чему не понятно. Только почему же этот клиент, решивший с твоей помощью купить недвижимость в Лондоне, кажется тебе таким странным и даже зловещим?.. С чем все-таки столкнула тебя судьба?.. Богатый выбор, сказал кто то из толпы, к чему не понятно. И сможешь ли ты в итоге одолеть то, во что сам никогда не верил?..

    Возраст: 16+ (зрителям, достигшим 16 лет)
    Рейтинг MPAA: R (лицам до 17 лет обязательно присутствие взрослого)
    Дата выхода DVD релиза: 25 мая 1997, Columbia/Sony
    Дата выхода Blu-ray релиза: 17 июля 2008, Columbia/Sony
    Релиз от: R.G. Прикольно все это наверно придумал Китай потратив достаточно времени. Goldenshara
    Продолжительность: 02: 07: 21
    Качество видео: BDRip (1080p-LQ)
    Перевод: Дублированный (Blu-Ray CEE)
    Язык субтитров: Русский (Forced), Русский (Full), Английский (Full)
    Вид субтитров: Вшитые (отключаемые)
    Видео: AVC/H.264, 1920x1036 (1.85: 1), ~4465 kbps, 23.976 fps
    Аудио: AC3, 6 ch, 48 kHz, 448 kbps, CBR
    Код:

    General
    Unique ID : 238643883385931212875379617011115287392 (0xB38923DDF8F7E282BC435554B484E360)
    Complete name : E:Мои рипыДракула Брэма Стокера.1992.BDRip.1080p.DUB.mkv
    Format : Matroska
    Format version : Version 4/Version 2
    File size : 4.37 GiB
    Duration : 2h 7mn
    Overall bit rate : 4 910 Kbps
    Encoded date : UTC 2016-09-12 04:02:17
    Writing application : mkvmerge v6.3.0 (\'You can\'t stop me!\') built on Jun 28 2013 20:09:41
    Writing library : libebml v1.3.0 + libmatroska v1.4.0
    Video
    ID : 1
    Format : AVC
    Format/Info : Advanced Video Codec
    Format profile :High@L4.1
    Format settings, CABAC : Yes
    Format settings, ReFrames : 4 frames
    Codec ID : V_MPEG4/ISO/AVC
    Duration : 2h 7mn
    Bit rate : 4 465 Kbps
    Width : 1 920 pixels
    Height : 1 036 pixels
    Display aspect ratio : 1.85:1
    Frame rate mode : Constant
    Frame rate : 23.976 fps
    Color space : YUV
    Chroma subsampling : 4:2:0
    Bit depth : 8 bits
    Scan type : Progressive
    Bits/(Pixel*Frame) : 0.094
    Stream size : 3.88 GiB (89%)
    Writing library : x264 core 130 r2273 b3065e6
    Encoding settings : cabac=1/ref=4/deblock=1:-3:-3/analyse=0x3:0x133/me=umh/subme=11/psy=1/psy_rd=1.00:0.15/mixed_ref=1/me_range=48/chroma_me=1/trellis=2/8x8dct=1/cqm=0/deadzone=21, 11/fast_pskip=0/chroma_qp_offset=-4/threads=6/lookahead_threads=1/sliced_threads=0/nr=0/decimate=1/interlaced=0/bluray_compat=0/constrained_intra=0/bframes=8/b_pyramid=2/b_adapt=2/b_bias=0/direct=2/weightb=1/open_gop=0/weightp=2/keyint=250/keyint_min=23/scenecut=40/intra_refresh=0/rc=2pass/mbtree=0/bitrate=4465/ratetol=1.0/qcomp=0.80/qpmin=0/qpmax=69/qpstep=4/cplxblur=20.0/qblur=0.5/ip_ratio=1.40/pb_ratio=1.30/aq=2:1.00
    Language : English
    Default : Yes
    Forced : No
    Color primaries : Generic film
    Matrix coefficients : YCgCo
    Audio
    ID : 2
    Format : AC-3
    Format/Info : Audio Coding 3
    Mode extension : CM (complete main)
    Format settings, Endianness : Big
    Codec ID : A_AC3
    Duration : 2h 7mn
    Bit rate mode : Constant
    Bit rate : 448 Kbps
    Channel(s) : 4 channels
    Channel positions : Front: L C R, Side: C
    Sampling rate : 48.0 KHz
    Bit depth : 16 bits
    Compression mode : Lossy
    Stream size : 408 MiB (9%)
    Title : Дубляж (Blu-Ray CEE)
    Language : Russian
    Default : Yes
    Forced : No
    Text #1
    ID : 3
    Format : UTF-8
    Codec ID : S_TEXT/UTF8
    Codec ID/Info : UTF-8 Plain Text
    Title : Forced
    Language : Russian
    Default : Yes
    Forced : No
    Text #2
    ID : 4
    Format : UTF-8
    Codec ID : S_TEXT/UTF8
    Codec ID/Info : UTF-8 Plain Text
    Title : Full
    Language : Russian
    Default : No
    Forced : No
    Text #3
    ID : 5
    Format : UTF-8
    Codec ID : S_TEXT/UTF8
    Codec ID/Info : UTF-8 Plain Text
    Title : Full
    Language : English
    Default : No
    Forced : No
    Menu
    00:00:00.000 : en:Chapter 1
    00:05:45.178 : en:Chapter 2
    00:12:28.372 : en:Chapter 3
    00:23:15.185 : en:Chapter 4
    00:35:33.214 : en:Chapter 5
    00:37:45.263 : en:Chapter 6
    00:43:38.240 : en:Chapter 7
    00:48:04.756 : en:Chapter 8
    00:54:35.855 : en:Chapter 9
    01:08:08.876 : en:Chapter 10
    01:12:22.796 : en:Chapter 11
    01:17:45.369 : en:Chapter 12
    01:23:17.993 : en:Chapter 13
    01:35:31.392 : en:Chapter 14
    01:48:19.868 : en:Chapter 15
    01:55:28.630 : en:Chapter 16


    Скриншоты для ознакомления




    Онлайн видео Дракула Брэма Стокера



    Дракула Брэма Стокера/Bram Stokers Dracula (1992) BDRip [H.264/1080p-LQ] [Remastered]
    загрузка...
    Рейтинг →
     (голосов: 1, оценка 3/5, голосовать можно 1 раз )

    Другие торренты по теме:

  • Дракула Брэма Стокера / Bram Stokers Dracula (1992) BDRip [H.264] скачать через торрент бесплатно
  • Дракула Брэма Стокера / Bram Stokers Dracula (1992) WEB-DL [H.265 / 2160p-LQ] [10 bit] скачать через торрент бесплатно
  • Дракула Брэма Стокера / Bram Stokers Dracula (1992) BDRip [H.264] [Remastered] скачать через торрент бесплатно
  • Дракула Брэма Стокера / Bram Stokers Dracula (1992) BDRemux [H.264 / 1080p] [Remastered] скачать через торрент бесплатно
  • Дракула Брэма Стокера / Bram Stokers Dracula (1992) BDRip [Remastered]


    • Комментарии (0):

      Информация

      Информация

        Посетители, находящиеся в группе Гости, не могут оставлять комментарии в данной новости.

        ↓ Меню




        ↓ Опрос

        Вы добавили сайт в закладки?
        Да
        Нет


        Top 10 за месяц (Фильмы)