.
Авторизация | Регистрация
Хочешь лучшие торренты? Добавь свой email!
Добавить

Торрент скачать бесплатно

» » Звёздные Войны. Эпизод VI: Возвращение Джедая / Star Wars: Episode VI - Return of the Jedi (1983) BDRemux [H.264 / 1080p] [35mm Renegade Grindhouse Scan] торрент скачать бесплатно




    Звёздные Войны. Эпизод VI: Возвращение Джедая / Star Wars: Episode VI - Return of the Jedi (1983) BDRemux [H.264 / 1080p] [35mm Renegade Grindhouse Scan] торрент скачать бесплатно

    Опубликовал: Админ | Дата: 12-09-2016, 04:01 | Просмотров: 120

    Производство: США/Lucasfilm Ltd.
    Жанр: Фантастика, Боевик, Фэнтези, Приключения
    Режиссер: Ричард Маркуанд

    Актеры
    Марк Хэмилл, Харрисон Форд, Кэрри Фишер, Билли Ди Уильямс, Энтони Дэниелс, Питер Мейхью, Себастьян Шоу, Иен МакДермид, Фрэнк Оз, Джеймс Эрл Джонс

    Описание

    В заключительном шестом эпизоде Звездных войн Дарт Вейдер создает вторую Звезду Смерти. Прикольно все это наверно придумал Европарламент потратив достаточно времени. Он объединяет все силы зла, чтобы с помощью этого смертоносного оружия нанести последний сокрушительный удар по повстанцам и как обычно их союзникам.
    Люк Скайуокер вместе с принцессой Лейей и верными дроидами R2D2 и C-3PO отправляется спасать своего друга Хана Соло, который попал в плен к отвратительному Джаббе Хатту — могущественному повелителю преступников.
    Повстанцы высаживаются на планету Эндор, чтобы оттуда вместе с Люком и его отрядом предпринять последнюю атаку на Имперский флот, атаку, от которой зависит судьба Галактики. В этом эпизоде Люк Скайуокер и Дарт Вейдер встречаются в последний раз… ибо из поединка между отцом и сыном живым выйдет только один…

    Возраст: 0+ (для любой зрительской аудитории)
    Рейтинг MPAA: PG (рекомендуется присутствие родителей)
    Продолжительность: 02: 01: 46
    Качество видео: BDRemux
    Перевод: Дублированный, Многоголосый закадровый, Авторский
    Язык субтитров: русский (на инопланетную речь, полные), украинский, английский
    Вид субтитров: Вшитые
    Видео: AVC/H.264, 1920x1080p, ~18mbps
    Аудио 1: AC3, 6 ch, 448 kbps, Русский (DUB, ОРТ)
    Аудио 2: АС3, 2 ch, 192 kbps, Русский (MVO, РТР - Лазер Видео)
    Аудио 3: АС3, 6 ch, 448 kbps, Русский (AVO, А. Гаврилов)
    Аудио 4: DTS-HD-MA, 2 ch, 1024 kbps, Английский
    Аудио 5: АС3, 2 ch, 256 kbps, Английский
    Аудио 6: DTS-HD-MA, 6ch, 1509 kbps, Английский
    Аудио 7: АС3, 6 ch, 640 kbps, Английский
    Аудио 8: АС3, 2 ch, 192 kbps, Английский (1993 Lasedisc Commentary Dolby Digital)
    Аудио 9: АС3, 2 ch, 160 kbps, Английский (2004 DVD Commentary Dolby Digital)
    Аудио 10: АС3, 2 ch, 160 kbps, Английский (2011 Blu-Ray Commentary Dolby Digital)
    Аудио 11: АС3, 2 ch, 224 kbps, Английский (Isolated Score Dolby Digital)
    Код:

    Общее
    Уникальный идентификатор : 222777567868118078732237149727913327109 (0xA799661D9F3F9BA790F95980D78ABA05)
    Полное имя : C:Star warsROTJ GrindhouseReturn.of.the.Jedi.Grindhouse.35mm.LPP.1080p.mkv
    Формат : Matroska
    Версия формата : Version 4/Version 2
    Размер файла : 22, 3 Гбайт
    Продолжительность : 2 ч. 11 м.
    Режим общего битрейта : Переменный
    Общий поток : 24, 2 Мбит/сек
    Дата кодирования : UTC 2016-08-27 17:23:23
    Программа кодирования : mkvmerge v9.4.0 (\'Knurl\') 64bit
    Библиотека кодирования : libebml v1.3.4 + libmatroska v1.4.5
    Видео
    Идентификатор : 1
    Формат : AVC
    Формат/Информация : Advanced Video Codec
    Профиль формата :High@L4.1
    Параметр CABAC формата : Да
    Параметр ReFrames формата : 3 кадра
    Идентификатор кодека : V_MPEG4/ISO/AVC
    Продолжительность : 2 ч. 11 м.
    Вид битрейта : Переменный
    Битрейт : 18, 0 Мбит/сек
    Максимальный битрейт : 25, 0 Мбит/сек
    Ширина : 1920 пикселей
    Высота : 1080 пикселей
    Соотношение сторон : 16:9
    Режим частоты кадров : Постоянный
    Частота кадров : 23, 976 (24000/1001) кадра/сек
    Цветовое пространство : YUV
    Субдискретизация насыщенности : 4:2:0
    Битовая глубина : 8 бит
    Тип развёртки : Прогрессивная
    Бит/(Пиксели*Кадры) : 0.362
    Размер потока : 16, 6 Гбайт (74%)
    Заголовок : 1983 35mm LPP Print
    Библиотека кодирования : x264 core 125 r2208 d9d2288
    Настройки программы : cabac=1/ref=4/deblock=1:-1:-1/analyse=0x3:0x133/me=umh/subme=10/psy=1/psy_rd=1.00:0.00/mixed_ref=1/me_range=64/chroma_me=1/trellis=2/8x8dct=1/cqm=0/deadzone=21, 11/fast_pskip=0/chroma_qp_offset=-2/threads=30/lookahead_threads=5/sliced_threads=0/slices=4/nr=0/decimate=1/interlaced=0/bluray_compat=1/constrained_intra=0/bframes=3/b_pyramid=1/b_adapt=2/b_bias=0/direct=3/weightb=1/open_gop=1/weightp=0/keyint=48/keyint_min=1/scenecut=40/intra_refresh=0/rc_lookahead=48/rc=2pass/mbtree=1/bitrate=18000/ratetol=1.0/qcomp=0.80/qpmin=0/qpmax=69/qpstep=4/cplxblur=20.0/qblur=0.5/vbv_maxrate=25000/vbv_bufsize=20000/nal_hrd=vbr/ip_ratio=1.40/aq=1:1.00
    Язык : English
    Default : Да
    Forced : Нет
    Цветовой диапазон : Limited
    Основные цвета : BT.709
    Характеристики трансфера : BT.709
    Коэффициенты матрицы : BT.709
    Аудио #1
    Идентификатор : 2
    Формат : AC-3
    Формат/Информация : Audio Coding 3
    Расширение режима : CM (complete main)
    Параметр Endianness формата : Big
    Идентификатор кодека : A_AC3
    Продолжительность : 2 ч. 11 м.
    Вид битрейта : Постоянный
    Битрейт : 448 Кбит/сек
    Каналы : 6 каналов
    Расположение каналов : Front: L C R, Side: L R, LFE
    Частота : 48, 0 КГц
    Частота кадров : 31, 250 кадров/сек (1536 spf)
    Метод сжатия : С потерями
    Размер потока : 423 Мбайт (2%)
    Заголовок : DUB (ОРТ)
    Язык : Russian
    Default : Да
    Forced : Нет
    Аудио #2
    Идентификатор : 3
    Формат : AC-3
    Формат/Информация : Audio Coding 3
    Расширение режима : CM (complete main)
    Параметр Endianness формата : Big
    Идентификатор кодека : A_AC3
    Продолжительность : 2 ч. 11 м.
    Вид битрейта : Постоянный
    Битрейт : 192 Кбит/сек
    Каналы : 2 канала
    Расположение каналов : Front: L R
    Частота : 48, 0 КГц
    Частота кадров : 31, 250 кадров/сек (1536 spf)
    Метод сжатия : С потерями
    Размер потока : 181 Мбайт (1%)
    Заголовок : MVO (PTP - Лазер Видео)
    Язык : Russian
    Default : Нет
    Forced : Нет
    Аудио #3
    Идентификатор : 4
    Формат : AC-3
    Формат/Информация : Audio Coding 3
    Расширение режима : CM (complete main)
    Параметр Endianness формата : Big
    Идентификатор кодека : A_AC3
    Продолжительность : 2 ч. 11 м.
    Вид битрейта : Постоянный
    Битрейт : 448 Кбит/сек
    Каналы : 6 каналов
    Расположение каналов : Front: L C R, Side: L R, LFE
    Частота : 48, 0 КГц
    Частота кадров : 31, 250 кадров/сек (1536 spf)
    Метод сжатия : С потерями
    Размер потока : 422 Мбайт (2%)
    Заголовок : AVO (Гаврилов)
    Язык : Russian
    Default : Нет
    Forced : Нет
    Аудио #4
    Идентификатор : 5
    Формат : DTS
    Формат/Информация : Digital Theater Systems
    Профиль формата : MA/Core
    Режим : 16
    Параметр Endianness формата : Big
    Идентификатор кодека : A_DTS
    Продолжительность : 2 ч. 11 м.
    Вид битрейта : Переменный/Постоянный
    Битрейт : 1024 Кбит/сек/639 Кбит/сек
    Каналы : 2 канала
    Расположение каналов : /Front: L R
    Частота : 48, 0 КГц
    Частота кадров : 93, 750 кадра/сек (512 spf)
    Битовая глубина : 16 бит
    Метод сжатия : Без потерь/Lossy
    Размер потока : 969 Мбайт (4%)
    Заголовок : 1983 Stereo mix 2.0 DTS-HD-MA
    Язык : English
    Default : Нет
    Forced : Нет
    Аудио #5
    Идентификатор : 6
    Формат : AC-3
    Формат/Информация : Audio Coding 3
    Профиль формата : Dolby Digital
    Расширение режима : CM (complete main)
    Параметр Endianness формата : Big
    Идентификатор кодека : A_AC3
    Продолжительность : 2 ч. 11 м.
    Вид битрейта : Постоянный
    Битрейт : 256 Кбит/сек
    Каналы : 2 канала
    Расположение каналов : Front: L R
    Частота : 48, 0 КГц
    Частота кадров : 31, 250 кадров/сек (1536 spf)
    Метод сжатия : С потерями
    Размер потока : 241 Мбайт (1%)
    Заголовок : 1983 Stereo mix 2.0 Dolby Digital
    Язык : English
    Default : Нет
    Forced : Нет
    Аудио #6
    Идентификатор : 7
    Формат : DTS
    Формат/Информация : Digital Theater Systems
    Профиль формата : MA/Core
    Режим : 16
    Параметр Endianness формата : Big
    Идентификатор кодека : A_DTS
    Продолжительность : 2 ч. 11 м.
    Вид битрейта : Переменный/Постоянный
    Битрейт : 2483 Кбит/сек/1509 Кбит/сек
    Каналы : 6 каналов
    Расположение каналов : Front: L C R, Side: L R, LFE
    Частота : 48, 0 КГц
    Частота кадров : 93, 750 кадра/сек (512 spf)
    Битовая глубина : 16 бит
    Метод сжатия : Без потерь/Lossy
    Размер потока : 2, 28 Гбайт (10%)
    Заголовок : 1983 Stereo mix 5.1 DTS-HD-MA
    Язык : English
    Default : Нет
    Forced : Нет
    Аудио #7
    Идентификатор : 8
    Формат : AC-3
    Формат/Информация : Audio Coding 3
    Расширение режима : CM (complete main)
    Параметр Endianness формата : Big
    Идентификатор кодека : A_AC3
    Продолжительность : 2 ч. 11 м.
    Вид битрейта : Постоянный
    Битрейт : 640 Кбит/сек
    Каналы : 6 каналов
    Расположение каналов : Front: L C R, Side: L R, LFE
    Частота : 48, 0 КГц
    Частота кадров : 31, 250 кадров/сек (1536 spf)
    Метод сжатия : С потерями
    Размер потока : 603 Мбайт (3%)
    Заголовок : 1983 Stereo mix 5.1 Dolby Digital
    Язык : English
    Default : Нет
    Forced : Нет
    Аудио #8
    Идентификатор : 9
    Формат : AC-3
    Формат/Информация : Audio Coding 3
    Расширение режима : CM (complete main)
    Параметр Endianness формата : Big
    Идентификатор кодека : A_AC3
    Продолжительность : 2 ч. 11 м.
    Вид битрейта : Постоянный
    Битрейт : 192 Кбит/сек
    Каналы : 2 канала
    Расположение каналов : Front: L R
    Частота : 48, 0 КГц
    Частота кадров : 31, 250 кадров/сек (1536 spf)
    Метод сжатия : С потерями
    Размер потока : 181 Мбайт (1%)
    Заголовок : 1993 Lasedisc Commentary Dolby Digital
    Язык : English
    Default : Нет
    Forced : Нет
    Аудио #9
    Идентификатор : 10
    Формат : AC-3
    Формат/Информация : Audio Coding 3
    Расширение режима : CM (complete main)
    Параметр Endianness формата : Big
    Идентификатор кодека : A_AC3
    Продолжительность : 2 ч. 11 м.
    Вид битрейта : Постоянный
    Битрейт : 160 Кбит/сек
    Каналы : 2 канала
    Расположение каналов : Front: L R
    Частота : 48, 0 КГц
    Частота кадров : 31, 250 кадров/сек (1536 spf)
    Метод сжатия : С потерями
    Размер потока : 151 Мбайт (1%)
    Заголовок : 2004 DVD Commentary Dolby Digital
    Язык : English
    Default : Нет
    Forced : Нет
    Аудио #10
    Идентификатор : 11
    Формат : AC-3
    Формат/Информация : Audio Coding 3
    Расширение режима : CM (complete main)
    Параметр Endianness формата : Big
    Идентификатор кодека : A_AC3
    Продолжительность : 2 ч. 11 м.
    Вид битрейта : Постоянный
    Битрейт : 160 Кбит/сек
    Каналы : 2 канала
    Расположение каналов : Front: L R
    Частота : 48, 0 КГц
    Частота кадров : 31, 250 кадров/сек (1536 spf)
    Метод сжатия : С потерями
    Размер потока : 151 Мбайт (1%)
    Заголовок : 2011 Blu-Ray Commentary Dolby Digital
    Язык : English
    Default : Нет
    Forced : Нет
    Аудио #11
    Идентификатор : 12
    Формат : AC-3
    Формат/Информация : Audio Coding 3
    Расширение режима : CM (complete main)
    Параметр Endianness формата : Big
    Идентификатор кодека : A_AC3
    Продолжительность : 2 ч. 11 м.
    Вид битрейта : Постоянный
    Битрейт : 224 Кбит/сек
    Каналы : 2 канала
    Расположение каналов : Front: L R
    Частота : 48, 0 КГц
    Частота кадров : 31, 250 кадров/сек (1536 spf)
    Метод сжатия : С потерями
    Размер потока : 211 Мбайт (1%)
    Заголовок : Isolated Score Dolby Digital
    Default : Нет
    Forced : Нет
    Текст #1
    Идентификатор : 13
    Формат : UTF-8
    Идентификатор кодека : S_TEXT/UTF8
    Идентификатор кодека/Информация : UTF-8 Plain Text
    Продолжительность : 21 м.
    Битрейт : 8 бит/сек
    Count of elements : 27
    Размер потока : 1, 41 Кбайт (0%)
    Заголовок : Forced (На Инопланетную Речь)
    Язык : Russian
    Default : Да
    Forced : Да
    Текст #2
    Идентификатор : 14
    Формат : UTF-8
    Идентификатор кодека : S_TEXT/UTF8
    Идентификатор кодека/Информация : UTF-8 Plain Text
    Продолжительность : 2 ч. Прикольно все это наверно придумал Европарламент потратив достаточно времени. 3 м.
    Битрейт : 60 бит/сек
    Count of elements : 1220
    Размер потока : 54, 9 Кбайт (0%)
    Заголовок : Full
    Язык : Russian
    Default : Нет
    Forced : Нет
    Текст #3
    Идентификатор : 15
    Формат : UTF-8
    Идентификатор кодека : S_TEXT/UTF8
    Идентификатор кодека/Информация : UTF-8 Plain Text
    Продолжительность : 2 ч. О таком странном сюжете не догадывалась даже Ангела Меркель. 3 м.
    Битрейт : 60 бит/сек
    Count of elements : 1212
    Размер потока : 54, 8 Кбайт (0%)
    Заголовок : Full
    Язык : Ukrainian
    Default : Нет
    Forced : Нет
    Текст #4
    Идентификатор : 16
    Формат : UTF-8
    Идентификатор кодека : S_TEXT/UTF8
    Идентификатор кодека/Информация : UTF-8 Plain Text
    Продолжительность : 2 ч. 3 м.
    Битрейт : 38 бит/сек
    Count of elements : 986
    Размер потока : 34, 8 Кбайт (0%)
    Заголовок : Full
    Язык : English
    Default : Нет
    Forced : Нет


    Скриншоты для ознакомления




    Онлайн видео Звёздные Войны. Эпизод VI: Возвращение Джедая



    Звёздные Войны. Эпизод VI: Возвращение Джедая/Star Wars: Episode VI - Return of the Jedi (1983) BDRemux [H.264/1080p] [35mm Renegade Grindhouse Scan]
    загрузка...
    Рейтинг →
     (голосов: 1, оценка 3/5, голосовать можно 1 раз )

    Другие торренты по теме:

  • Звёздные войны. Эпизод 5: Империя наносит ответный удар / Star Wars: Episode V - The Empire Strikes Back / Despecialized Edition Theatrical reconstruction HD (1980) BDRip скачать через торрент бесплатно
  • Звёздные войны: Повстанцы / Star Wars: Rebels (2014) WEB-DLRip (Сезон 1, Серий 3 из 16) (LostFilm)
  • Финес и Ферб. Звёздные войны / Phineas and Ferb: Star Wars (2014) WEB-DLRip (ЛанселаП) скачать через торрент бесплатно
  • Звёздные войны: Повстанцы / Star Wars: Rebels (2014) WEB-DLRip [1080p] (Сезон 1, серий 8 из 16) (LostFilm) скачать через торрент бесплатно
  • Звёздные войны: Повстанцы / Star Wars: Rebels (2014) WEB-DLRip (Сезон 1, серий 7 из 16) (Невафильм) (обновляемая)
  • Звёздные войны: Повстанцы 1.0.0 - Официальная игра по мотивам популярного серила [Ru] скачать через торрент бесплатно
  • Звёздные войны: Повстанцы 1.0.2 [Ru / En] скачать через торрент бесплатно
  • Звёздные войны: Сага / Star Wars: The Complete Saga (1977-2005) HDRip [H.264][MP4|960х400] скачать через торрент бесплатно


    • Комментарии (0):

      Информация

      Информация

        Посетители, находящиеся в группе Гости, не могут оставлять комментарии в данной новости.

        ↓ Меню




        ↓ Опрос

        Вы добавили сайт в закладки?
        Да
        Нет


        Top 10 за месяц (Фильмы)