.
Авторизация | Регистрация
Хочешь лучшие торренты? Добавь свой email!
Добавить

Торрент скачать бесплатно

» » Каникулы строгого режима (2009) HDTV [H.264 / 1080i-LQ] (Полная версия) торрент скачать бесплатно




    Каникулы строгого режима (2009) HDTV [H.264 / 1080i-LQ] (Полная версия) торрент скачать бесплатно

    Опубликовал: Админ | Дата: 11-09-2016, 04:04 | Просмотров: 41

    Производство: Россия, Дирекция кино
    Жанр: Драма, Комедия, Приключения
    Режиссер: Игорь Зайцев

    Актеры
    Сергей Безруков, Дмитрий Дюжев, Сабина Ахмедова, Алена Бабенко, Владимир Меньшов, Алексей Кравченко, Александр Лыков, Кирилл Плетнёв, Людмила Полякова, Тимур Боканча, Андрей Кивинов

    Описание

    История о том, как двое не самых молодых людей, Кольцов и Сумароков, волею судьбы оказались вожатыми в пионерском лагере в компании в меру энергичного руководства и не в меру энергичных детей. Все бы ничего, да только попали они туда прямо с арестантской шконки. Сначала Кольцов, будучи весьма уважаемым профессиональным сотрудником МВД, имеющий за плечами две поездки в Чечню, вдруг по неосторожности совершает убийство своего коллеги. Стараниями родственников покойного попадает на черную зону, где ему не рад никто от руководящей элиты до зэков. Там он знакомится с Сумароковым. При содействии сотрудника колонии Гагарина мужчины бегут из тюрьмы и устраиваются вожатыми в пионерлагерь.

    Возраст: 0+ (для любой зрительской аудитории)
    Продолжительность: 02: 19: 20
    Качество видео: HDTV 1080i-LQ
    Видео: AVC/H.264, 1920x1080, ~5713 Kbps
    Аудио #1: MP2, 48 kHz, 2 ch, 224 kbps
    Аудио #2: АС-3, 48 kHz, 6 ch, 384 kbps
    Код:

    Общее
    Идентификатор : 16 (0x10)
    Полное имя : Kanikuly strogogo rezhima_HD.ts
    Формат : MPEG-TS
    Размер файла : 6, 48 Гбайт
    Продолжительность : 2 ч. 19 м.
    Режим общего битрейта : Переменный
    Общий поток : 6656 Кбит/сек
    Видео
    Идентификатор : 1902 (0x76E)
    Идентификатор меню : 92 (0x5C)
    Формат : AVC
    Формат/Информация : Advanced Video Codec
    Профиль формата :High@L4.0
    Параметр CABAC формата : Да
    Параметр ReFrames формата : 3 кадра
    Идентификатор кодека : 27
    Продолжительность : 2 ч. 19 м.
    Битрейт : 5713 Кбит/сек
    Ширина : 1920 пикселей
    Высота : 1080 пикселей
    Соотношение сторон : 16:9
    Частота кадров : 25, 000 кадров/сек
    Стандарт вещания : PAL
    Цветовое пространство : YUV
    Субдискретизация насыщенности : 4:2:0
    Битовая глубина : 8 бит
    Тип развёртки : Чересстрочная
    Порядок развёртки : Верхнее поле первое
    Бит/(Пиксели*Кадры) : 0.110
    Размер потока : 5, 56 Гбайт (86%)
    Основные цвета : BT.709
    Характеристики трансфера : BT.709
    Коэффициенты матрицы : BT.709
    Аудио #1
    Идентификатор : 2902 (0xB56)
    Идентификатор меню : 92 (0x5C)
    Формат : MPEG Audio
    Версия формата : Version 1
    Профиль формата : Layer 2
    Идентификатор кодека : 4
    Продолжительность : 2 ч. 19 м.
    Вид битрейта : Постоянный
    Битрейт : 224 Кбит/сек
    Каналы : 2 канала
    Частота : 48, 0 КГц
    Метод сжатия : С потерями
    Задержка видео : 16 мс.
    Размер потока : 223 Мбайт (3%)
    Язык : std
    Язык, дополнительно : Clean effects
    Аудио #2
    Идентификатор : 3902 (0xF3E)
    Идентификатор меню : 92 (0x5C)
    Формат : AC-3
    Формат/Информация : Audio Coding 3
    Расширение режима : CM (complete main)
    Параметр Endianness формата : Big
    Идентификатор кодека : 6
    Продолжительность : 2 ч. 19 м.
    Вид битрейта : Постоянный
    Битрейт : 384 Кбит/сек
    Каналы : 6 каналов
    Расположение каналов : Front: L C R, Side: L R, LFE
    Частота : 48, 0 КГц
    Битовая глубина : 16 бит
    Метод сжатия : С потерями
    Задержка видео : 110 мс.
    Размер потока : 383 Мбайт (6%)
    Язык : std
    Язык, дополнительно : Clean effects
    Текст #1
    Идентификатор : 33 (0x21)-100
    Идентификатор меню : 92 (0x5C)
    Формат : Teletext
    Текст #2
    Идентификатор : 33 (0x21)-888
    Идентификатор меню : 92 (0x5C)
    Формат : Teletext
    Меню
    Идентификатор : 902 (0x386)
    Идентификатор меню : 92 (0x5C)
    Продолжительность : 2 ч. 19 м.
    Список : 1902 (0x76E) (AVC)/2902 (0xB56) (MPEG Audio, std)/3902 (0xF3E) (AC-3, std)/33 (0x21) ()
    Язык : /std/std


    Скриншоты для ознакомления




    Онлайн видео Каникулы строгого режима (2009) HDTV [H.264



    Каникулы строгого режима (2009) HDTV [H.264/1080i-LQ] (Полная версия)
    загрузка...
    Рейтинг →
     (голосов: 1, оценка 4/5, голосовать можно 1 раз )

    Другие торренты по теме:

  • Каникулы строгого режима (2009) DVDRip [Полная версия]


    • Комментарии (0):

      Информация

      Информация

        Посетители, находящиеся в группе Гости, не могут оставлять комментарии в данной новости.

        ↓ Меню




        ↓ Опрос

        Вы добавили сайт в закладки?
        Да
        Нет


        Top 10 за месяц (Фильмы)