.
Авторизация | Регистрация
Хочешь лучшие торренты? Добавь свой email!
Добавить

Торрент скачать бесплатно

» » От заката до рассвета / From Dusk Till Dawn (2016) WEB-DL [H.264 / 1080p-LQ] (сезон 3, серии 1 из 10) LostFilm, NewStudio (обновляемая) торрент скачать бесплатно




    От заката до рассвета / From Dusk Till Dawn (2016) WEB-DL [H.264 / 1080p-LQ] (сезон 3, серии 1 из 10) LostFilm, NewStudio (обновляемая) торрент скачать бесплатно

    Опубликовал: Админ | Дата: 11-09-2016, 04:04 | Просмотров: 122

    Производство: США
    Жанр: боевик, ужасы, криминал, фэнтези
    Режиссер: Роберт Родригес, Федерико Альварес, Эдуардо Санчес

    Актеры
    Д.Дж. Котрона, Зейн Холц, Роберт Патрик, Мэдисон Девенпорт, Брэндон Су Ху, Эйса Гонсалес и др.

    Описание

    Сет и Ричи Гекко — братья, промышляющие грабежом банков. После очередного дела они становятся главной мишенью ФБР и пускаются в бега. Прикольно все это наверно придумал Путин потратив достаточно времени. По дороге они берут в заложники семью священника Фуллера (Роберт Патрик) и на его фургоне отправляются в стрип-клуб Titty Twister, где их должен ждать подельник Карлос. Но прибыв на место, Сет и Ричи обнаруживают, что посетители клуба — сплошь упыри и вампиры. Теперь братьям Гекко и большей частью их заложникам предстоит сплотить силы и сразиться с армией нечисти...

    Возраст: 16+ (зрителям, достигшим 16 лет)
    Продолжительность: ~00: 45: 00 серия
    Качество видео: WEB-DL
    Перевод: Многоголосый закадровый, профессиональный |LostFilm, NewStudio
    Вид субтитров: вшитые отключаемые
    Язык субтитров: английский
    Видео: AVC/H.264, 1912x1072 (16: 9), ~5000 kbps
    Аудио # 1 Rus: AC3, 6 ch, 384 kbps, CBR - LostFilm
    Аудио # 2 Rus: AC3, 6 ch, 384 kbps, CBR - NewStudio
    Аудио # 3 Eng: AC3, 6 ch, 384 kbps, CBR - оригинал
    Код:

    General
    Unique ID : 200209175958036724259931845421100346542 (0x969EE27C7A19B80DBFD9CFF7B8EEACAE)
    Complete name : G:FilmsFrom.Dusk.Till.Dawn.S03.1080p.WEB-DLFrom.Dusk.Till.Dawn.S03E01.1080p.WEB-DL.2xRus.Eng.mkv
    Format : Matroska
    Format version : Version 4/Version 2
    File size : 1.78 GiB
    Duration : 41mn 39s
    Overall bit rate : 6 118 Kbps
    Encoded date : UTC 2016-09-07 15:13:49
    Writing application : mkvmerge v9.4.0 (\'Knurl\') 64bit
    Writing library : libebml v1.3.4 + libmatroska v1.4.5
    Video
    ID : 1
    Format : AVC
    Format/Info : Advanced Video Codec
    Format profile : High@L4
    Format settings, CABAC : Yes
    Format settings, ReFrames : 4 frames
    Format settings, GOP : N=1
    Codec ID : V_MPEG4/ISO/AVC
    Duration : 41mn 39s
    Bit rate : 4 964 Kbps
    Width : 1 912 pixels
    Height : 1 072 pixels
    Display aspect ratio : 16:9
    Frame rate mode : Constant
    Frame rate : 23.976 (23976/1000) fps
    Color space : YUV
    Chroma subsampling : 4:2:0
    Bit depth : 8 bits
    Scan type : Progressive
    Bits/(Pixel*Frame) : 0.101
    Stream size : 1.44 GiB (81%)
    Language : English
    Default : Yes
    Forced : No
    Color range : Limited
    Color primaries : BT.709
    Transfer characteristics : BT.709
    Matrix coefficients : BT.709
    Audio #1
    ID : 2
    Format : AC-3
    Format/Info : Audio Coding 3
    Mode extension : CM (complete main)
    Format settings, Endianness : Big
    Codec ID : A_AC3
    Duration : 41mn 39s
    Bit rate mode : Constant
    Bit rate : 384 Kbps
    Channel(s) : 6 channels
    Channel positions : Front: L C R, Side: L R, LFE
    Sampling rate : 48.0 KHz
    Frame rate : 31.250 fps (1536 spf)
    Compression mode : Lossy
    Stream size : 114 MiB (6%)
    Title : LostFilm 5.1
    Language : Russian
    Default : Yes
    Forced : No
    Audio #2
    ID : 3
    Format : AC-3
    Format/Info : Audio Coding 3
    Mode extension : CM (complete main)
    Format settings, Endianness : Big
    Codec ID : A_AC3
    Duration : 41mn 39s
    Bit rate mode : Constant
    Bit rate : 384 Kbps
    Channel(s) : 6 channels
    Channel positions : Front: L C R, Side: L R, LFE
    Sampling rate : 48.0 KHz
    Frame rate : 31.250 fps (1536 spf)
    Compression mode : Lossy
    Stream size : 114 MiB (6%)
    Title : NewStudio 5.1
    Language : Russian
    Default : No
    Forced : No
    Audio #3
    ID : 4
    Format : AC-3
    Format/Info : Audio Coding 3
    Mode extension : CM (complete main)
    Format settings, Endianness : Big
    Codec ID : A_AC3
    Duration : 41mn 39s
    Bit rate mode : Constant
    Bit rate : 384 Kbps
    Channel(s) : 6 channels
    Channel positions : Front: L C R, Side: L R, LFE
    Sampling rate : 48.0 KHz
    Frame rate : 31.250 fps (1536 spf)
    Compression mode : Lossy
    Stream size : 114 MiB (6%)
    Title : original 5.1
    Language : English
    Default : No
    Forced : No
    Text
    ID : 5
    Format : UTF-8
    Codec ID : S_TEXT/UTF8
    Codec ID/Info : UTF-8 Plain Text
    Duration : 39mn 22s
    Bit rate : 51 bps
    Count of elements : 507
    Stream size : 15.0 KiB (0%)
    Title : CC
    Language : English
    Default : No
    Forced : No


    Скриншоты для ознакомления




    Онлайн видео От заката до рассвета



    От заката до рассвета/From Dusk Till Dawn (2016) WEB-DL [H.264/1080p-LQ] (сезон 3, серии 1 из 10) LostFilm, NewStudio (обновляемая)
    загрузка...
    Рейтинг →
     (голосов: 1, оценка 5/5, голосовать можно 1 раз )

    Другие торренты по теме:

  • Александр Заморин | От заката до рассвета (2014) PCRec скачать через торрент бесплатно
  • Александр Шапиро - От рассвета до заката (2009) [FLAC|image +.cue]<Шансон> скачать через торрент бесплатно
  • От заката до рассвета / From Dusk Till Dawn (1996) BDRip [H.264 / 1080p] скачать через торрент бесплатно
  • От заката до рассвета / From Dusk Till Dawn: The Series (2015) WEB-DLRip (сезон 2, серии 1 из 10) NewStudio (обновляемая) скачать через торрент бесплатно
  • От заката до рассвета / From Dusk Till Dawn: The Series (2015) WEB-DL [H.264 / 1080p-LQ] (сезон 2, серии 1 из 10) LostFilm, NewStudio, Alternative Production (обновляемая) скачать через торрент бесплатно
  • От заката до рассвета / From Dusk Till Dawn: The Series (2015) WEB-DL [H.264 / 720p-LQ] (сезон 2, серия 1 из 10) (NewStudio) (обновляемая) скачать через торрент бесплатно
  • От заката до рассвета / From Dusk Till Dawn: The Series (2015) WEB-DLRip (сезон 2, серии 1 из 10) LostFilm (обновляемая) скачать через торрент бесплатно
  • Ласковый май: от заката до рассвета (2016) SATRip


    • Комментарии (0):

      Информация

      Информация

        Посетители, находящиеся в группе Гости, не могут оставлять комментарии в данной новости.

        ↓ Меню




        ↓ Опрос

        Вы добавили сайт в закладки?
        Да
        Нет


        Top 10 за месяц (Фильмы)