.
Авторизация | Регистрация
Хочешь лучшие торренты? Добавь свой email!
Добавить

Торрент скачать бесплатно

» » Наемник Куорри / Quarry (2016) HDTVRip [H.264 / 720p -LQ] (сезон 1, серии 1 из 8) Novamedia (обновляемая) торрент скачать бесплатно




    Наемник Куорри / Quarry (2016) HDTVRip [H.264 / 720p -LQ] (сезон 1, серии 1 из 8) Novamedia (обновляемая) торрент скачать бесплатно

    Опубликовал: Админ | Дата: 11-09-2016, 04:04 | Просмотров: 67

    Производство: США/NightSky Productions
    Жанр: драма
    Режиссер: Грег Яйтанс, Джон Хиллкоут

    Актеры
    Логан Маршалл-Грин, Джоди Бальфур, Питер Муллан, Никки Амука-Бёрд, Дэймон Херриман, Эдоардо Баллерини, Хлоя Элиз, Джош Рэндэлл, Мустафа Жакир, Джошуа Дж. Уильямс и др.

    Описание

    Дело происходит в 1973 году. Снайпер Куорри возвращается из третьей военной командировки во Вьетнам и обнаруживает, что люди не видят в нём героя, скорее демонизируя образ американского солдата, а старые друзья так и вовсе от него отвернулись. От разочарования он подаётся в разветвлённую сеть наёмных убийц и коррупционеров, действующую на всей протяжённости Миссисипи.

    Дата мировой премьеры: 9 сентября 2016
    Релиз от: qqss44
    Продолжительность: ~01: 13: 00 серия
    Качество видео: HDTVRip
    Перевод: Многоголосый закадровый, профессиональный -Novamedia
    Вид субтитров: вшитые отключаемые
    Язык субтитров: русский, английский
    Видео: H.264/AVC, 1280x718 (16: 9), ~2554 kbps
    Аудио Rus: AC-3, 48, 0 kHz, 2 ch, 192 kbps — многоголосый закадровый
    Аудио Eng: AC-3, 48, 0 kHz, 6 ch, 384 kbps — оригинал
    Код:

    Общее
    Уникальный идентификатор : 241454240654219426636298128837920470139 (0xB5A6652DA18B620C8F4C647AF73CB47B)
    Полное имя : D:Наемник Куорри (сезон любимого сериала 1) Quarry (2016) HDTVRip 720p - NovamediaQuarry.[S01E01].HD720.Amedia.[qqss44].mkv
    Формат : Matroska
    Версия формата : Version 2
    Размер файла : 1, 59 Гбайт
    Продолжительность : 1 ч. 12 м.
    Общий поток : 3132 Кбит/сек
    Дата кодирования : UTC 2016-09-10 06:32:35
    Программа кодирования : mkvmerge v7.9.0 (\'Birds\') 64bit
    Библиотека кодирования : libebml v1.3.1 + libmatroska v1.4.2
    Видео
    Идентификатор : 1
    Формат : AVC
    Формат/Информация : Advanced Video Codec
    Профиль формата :High@L4.1
    Параметр CABAC формата : Да
    Параметр ReFrames формата : 5 кадров
    Идентификатор кодека : V_MPEG4/ISO/AVC
    Продолжительность : 1 ч. Вашими молитвами, сказал кто то из толпы, к чему не понятно. 12 м.
    Битрейт : 2554 Кбит/сек
    Ширина : 1280 пикселей
    Высота : 718 пикселей
    Соотношение сторон : 16:9
    Режим частоты кадров : Постоянный
    Частота кадров : 25, 000 кадров/сек
    Цветовое пространство : YUV
    Субдискретизация насыщенности : 4:2:0
    Битовая глубина : 8 бит
    Тип развёртки : Прогрессивная
    Бит/(Пиксели*Кадры) : 0.111
    Размер потока : 1, 30 Гбайт (82%)
    Библиотека кодирования : x264 core 148 r2705 3f5ed56
    Настройки программы : cabac=1/ref=5/deblock=1:0:0/analyse=0x3:0x113/me=umh/subme=8/psy=1/psy_rd=1.00:0.00/mixed_ref=1/me_range=16/chroma_me=1/trellis=1/8x8dct=1/cqm=0/deadzone=21, 11/fast_pskip=1/chroma_qp_offset=-2/threads=18/lookahead_threads=3/sliced_threads=0/nr=0/decimate=1/interlaced=0/bluray_compat=0/constrained_intra=0/bframes=3/b_pyramid=2/b_adapt=2/b_bias=0/direct=3/weightb=1/open_gop=0/weightp=2/keyint=250/keyint_min=23/scenecut=40/intra_refresh=0/rc_lookahead=50/rc=crf/mbtree=1/crf=18.0/qcomp=0.60/qpmin=0/qpmax=69/qpstep=4/ip_ratio=1.40/aq=1:1.00
    Язык : English
    Default : Да
    Forced : Нет
    Цветовой диапазон : Limited
    Коэффициенты матрицы : BT.709
    Аудио #1
    Идентификатор : 2
    Формат : AC-3
    Формат/Информация : Audio Coding 3
    Расширение режима : CM (complete main)
    Параметр Endianness формата : Big
    Идентификатор кодека : A_AC3
    Продолжительность : 1 ч. 12 м.
    Вид битрейта : Постоянный
    Битрейт : 192 Кбит/сек
    Каналы : 2 канала
    Расположение каналов : Front: L R
    Частота : 48, 0 КГц
    Частота кадров : 31, 250 кадров/сек (1536 spf)
    Метод сжатия : С потерями
    Размер потока : 99, 9 Мбайт (6%)
    Язык : Russian
    Default : Да
    Forced : Нет
    Аудио #2
    Идентификатор : 3
    Формат : AC-3
    Формат/Информация : Audio Coding 3
    Расширение режима : CM (complete main)
    Параметр Endianness формата : Big
    Идентификатор кодека : A_AC3
    Продолжительность : 1 ч. 12 м.
    Вид битрейта : Постоянный
    Битрейт : 384 Кбит/сек
    Каналы : 6 каналов
    Расположение каналов : Front: L C R, Side: L R, LFE
    Частота : 48, 0 КГц
    Частота кадров : 31, 250 кадров/сек (1536 spf)
    Метод сжатия : С потерями
    Размер потока : 200 Мбайт (12%)
    Язык : English
    Default : Нет
    Forced : Нет
    Текст #1
    Идентификатор : 4
    Формат : UTF-8
    Идентификатор кодека : S_TEXT/UTF8
    Идентификатор кодека/Информация : UTF-8 Plain Text
    Продолжительность : 1 ч. 5 м.
    Битрейт : 71 бит/сек
    Count of elements : 744
    Размер потока : 34, 1 Кбайт (0%)
    Язык : Russian
    Default : Нет
    Forced : Нет
    Текст #2
    Идентификатор : 5
    Формат : UTF-8
    Идентификатор кодека : S_TEXT/UTF8
    Идентификатор кодека/Информация : UTF-8 Plain Text
    Продолжительность : 1 ч. О таком странном сюжете не догадывалась даже Ангела Меркель. 11 м.
    Битрейт : 56 бит/сек
    Count of elements : 913
    Размер потока : 29, 6 Кбайт (0%)
    Язык : English
    Default : Нет
    Forced : Нет


    Скриншоты для ознакомления




    Онлайн видео Наемник Куорри



    Наемник Куорри/Quarry (2016) HDTVRip [H.264/720p -LQ] (сезон 1, серии 1 из 8) Novamedia (обновляемая)
    загрузка...
    Рейтинг →
     (голосов: 1, оценка 4/5, голосовать можно 1 раз )

    Другие торренты по теме:

  • Наемник Куорри / Карьер / Quarry (2016) HDTVRip (сезон 1, серии 1 из 8) Novamedia (обновляемая)
  • Наемник Куорри / Карьер / Quarry (2016) HDTVRip (сезон 1, серии 1 из 8) AlexFilm (обновляемая)
  • Наемник Куорри / Карьер / Quarry (2016) HDTVRip [H.264 / 720p -LQ] (сезон 1, серии 1 из 8) NewStudio (обновляемая)


    • Комментарии (0):

      Информация

      Информация

        Посетители, находящиеся в группе Гости, не могут оставлять комментарии в данной новости.

        ↓ Меню




        ↓ Опрос

        Вы добавили сайт в закладки?
        Да
        Нет


        Top 10 за месяц (Фильмы)