.
Авторизация | Регистрация
Хочешь лучшие торренты? Добавь свой email!
Добавить

Торрент скачать бесплатно

» » Дивергент, глава 3: За стеной / The Divergent Series: Allegiant (2016) DVD5 торрент скачать бесплатно




    Дивергент, глава 3: За стеной / The Divergent Series: Allegiant (2016) DVD5 торрент скачать бесплатно

    Опубликовал: Админ | Дата: 10-09-2016, 04:02 | Просмотров: 204

    Производство: США/Summit Entertainment, Lionsgate, Red Wagon Productions
    Жанр: Фантастика, боевик, триллер, детектив, приключения
    Режиссер: Роберт Швентке
    Продюсеры: Люси Фишер, Пуйа Шахбазян, Дуглас Уик

    Актеры
    Шейлин Вудли, Тео Джеймс, Энсел Элгорт, Зои Кравиц, Майлз Теллер, Джефф Дэниелс, Наоми Уоттс, Мэгги Кью, Билл Скарсгард, Кейнан Лонсдейл

    Описание

    Трис и Фор впервые покидают город и своих близких и оказываются в опасном мире за стеной, отделяющей Чикаго, где им открывается шокирующая правда.
    Они должны быстро разобраться, кому можно доверять, так как битва, разгорающаяся за стенами города, угрожает всему человечеству. Блошиный рынок, сказал кто то из толпы, к чему не понятно. Чтобы выжить, Трис придется сделать непростой выбор между мужеством, верностью, любовью и необходимостью идти на жертвы.

    Рейтинг MPAA: PG-13 (детям до 13 лет просмотр нежелателен)
    Дата мировой премьеры: 8 марта 2016
    Дата российской премьеры: 10 марта 2016, Централ Партнершип

    Продолжительность: 01: 55: 32
    Качество видео: DVD5
    Перевод: Дублированный (лицензия)
    Субтитры: Отсутствуют
    Видео: MPEG-2, 720x576@1024x576 (PAL 16: 9), ~5000 Kbps
    Аудио: AC3 5.1, 448 Kbps
    Код:
    Title: Allegiant (2016) DVD5
    Size: 4.37 Gb ( 4 582 514, 00 KBytes ) - DVD-5
    Enabled regions: 1, 2, 3, 4, 5, 6, 7, 8
    VTS_01 :
    Play Length: 01:55:32
    Video: PAL 16:9 (720x576) VBR, Auto Letterboxed
    Audio:
    Russian (Dolby AC3, 6 ch)
    * Menus Information *
    VIDEO_TS Menu
    Video:
    NTSC 4:3 (720x480) VBR
    Auto PanScan, Auto Letterboxed
    English Language Unit :
    Title Menu
    VTS_01 Menu
    Video:
    PAL 16:9 (720x576) VBR
    Auto Letterboxed
    Audio:
    Not specified (Dolby AC3, 6 ch)
    English Language Unit :
    Root Menu
    Chapter (PTT) Menu
    Код:
    Общее
    Полное имя : G:ВидеоAllegiant (2016) DVD5VIDEO_TSVTS_01_1.VOB
    Формат : MPEG-PS
    Размер файла : 1024 Мбайт
    Продолжительность : 25 м.
    Режим общего битрейта : Переменный
    Общий поток : 5557 Кбит/сек
    Видео
    Идентификатор : 224 (0xE0)
    Формат : MPEG Video
    Версия формата : Version 2
    Профиль формата : Main@Main
    Параметр BVOP формата : Да
    Параметр матрицы формата : Выборочная
    Параметр GOP формата : Variable
    Продолжительность : 25 м.
    Вид битрейта : Переменный
    Битрейт : 4999 Кбит/сек
    Максимальный битрейт : 9000 Кбит/сек
    Ширина : 720 пикселей
    Высота : 576 пикселей
    Соотношение сторон : 16:9
    Частота кадров : 25, 000 кадров/сек
    Стандарт вещания : PAL
    Цветовое пространство : YUV
    Субдискретизация насыщенности : 4:2:0
    Битовая глубина : 8 бит
    Тип развёртки : Прогрессивная
    Порядок развёртки : Нижнее поле первое
    Метод сжатия : С потерями
    Бит/(Пиксели*Кадры) : 0.482
    Временной код первого кадра : 00:00:00:00
    Оригинал временного кода : Group of pictures t_head
    GOP, открыто/закрыто : Открыто
    GOP, открыто/закрыто на первом кадре : Закрыто
    Размер потока : 921 Мбайт (90%)
    Аудио
    Идентификатор : 189 (0xBD)-128 (0x80)
    Формат : AC-3
    Формат/Информация : Audio Coding 3
    Расширение режима : CM (complete main)
    Параметр Endianness формата : Big
    Режим смешивания : DVD-Video
    Продолжительность : 25 м.
    Вид битрейта : Постоянный
    Битрейт : 448 Кбит/сек
    Каналы : 6 каналов
    Расположение каналов : Front: L C R, Side: L R, LFE
    Частота : 48, 0 КГц
    Частота кадров : 31, 250 кадров/сек (1536 spf)
    Метод сжатия : С потерями
    Размер потока : 82, 5 Мбайт (8%)
    Меню


    Скриншоты для ознакомления




    Онлайн видео Дивергент, глава 3: За стеной



    Дивергент, глава 3: За стеной/The Divergent Series: Allegiant (2016) DVD5
    загрузка...
    Рейтинг →
     (голосов: 1, оценка 3/5, голосовать можно 1 раз )

    Другие торренты по теме:

  • Дивергент, глава 2: Инсургент / Insurgent (2015) WEBRip [1080p] [Трейлер]
  • Joseph Trapanese - Дивергент, глава 2: Инсургент / Insurgent (Original Motion Picture Score) (2015) [AAC|WEB-DL|256 кб / с]<Soundtrack> скачать через торрент бесплатно
  • Дивергент, глава 2: Инсургент / Insurgent (2015) TS скачать через торрент бесплатно
  • Дивергент, глава 2: Инсургент / Insurgent (2015) TS скачать через торрент бесплатно
  • Дивергент, глава 2: Инсургент / Insurgent (2015) WEBRip [звук с TS] скачать через торрент бесплатно
  • Дивергент, глава 2: Инсургент / Insurgent (2015) WEBRip [Звук с TS] скачать через торрент бесплатно
  • Дивергент, глава 2: Инсургент / Insurgent (2015) WEBRip [H.264 / 1080p-LQ] [звук с TS] скачать через торрент бесплатно
  • Дивергент, глава 2: Инсургент / Insurgent (2015) WEBRip [H.264 / 720p-LQ] [звук с TS] скачать через торрент бесплатно


    • Комментарии (0):

      Информация

      Информация

        Посетители, находящиеся в группе Гости, не могут оставлять комментарии в данной новости.

        ↓ Меню




        ↓ Опрос

        Вы добавили сайт в закладки?
        Да
        Нет


        Top 10 за месяц (Фильмы)