.
Авторизация | Регистрация
Хочешь лучшие торренты? Добавь свой email!
Добавить

Торрент скачать бесплатно

» » СтартАп / StartUp (2016) WEB-DL [H.264 / 1080p-LQ] (сезон 1, серии 1-2 из 10) NewStudio (обновляемая) торрент скачать бесплатно




    СтартАп / StartUp (2016) WEB-DL [H.264 / 1080p-LQ] (сезон 1, серии 1-2 из 10) NewStudio (обновляемая) торрент скачать бесплатно

    Опубликовал: Админ | Дата: 10-09-2016, 04:01 | Просмотров: 16

    Производство: США, Hollywood Gang Productions, Relativity Real
    Жанр: триллер, криминал
    Режиссер: Бен Кетаи

    Актеры
    Мартин Фриман, Адам Броди, Эди Гатеги, Кристен Ариза, Эшли Хиншоу, Келвин Харрисон, Альфредо Де Куэсада, Джоселин Донахью и др.

    Описание

    Действие картины разворачивается в США, в Майами. В сериале Мартин Фримен играет Фила Раска, агента ФБР, о котором известно, что он применяет силу, когда ему приходится решать участь тех, кто находится в его власти - причем не всегда оправданно. Одним из таких людей, попавших в поле зрения этого прирождённого детектива, стал Ник Талман, талантливый финансист, работающий в консалтинговой компании в Майами. Но объектом интереса для Раска является не сам Ник, а его состоятельный отец, до поры до времени занимавшийся нелегальной деятельностью, а потом внезапно исчезнувший из общественного поля зрения...

    Дата мировой премьеры: 6 сентября 2016
    Продолжительность: ~ 00: 45: 00 серия (00: 54: 11 первая серия)
    Качество видео: WEB-DL
    Перевод: Профессиональный многоголосый закадровый -NewStudio (ненормативная лексика)
    Автор перевода: Ирина Гвозденко
    ВНИМАНИЕ! Присутствует ненормативная лексика!
    Видео: AVC/H.264, 1920x1080 (16: 9), ~4551 Kbps
    Аудио Rus: AC3, 192 kbps, 2 ch, 48 kHz
    Аудио Eng: AC3, 192 kbps, 2 ch, 48 kHz
    Код:
    Общее
    StartUp - СтартАп. Сезон 1. NewStudio. 1080pStartUp.s01e01.WEB-DL.1080p.NewStudio.mkv
    Формат : Matroska
    Версия формата : Version 4/Version 2
    Размер файла : 1, 91 Гбайт
    Продолжительность : 54 м.
    Общий поток : 5035 Кбит/сек
    Название фильма : StartUp s01e01 @ NNM-Club
    Дата кодирования : UTC 2016-09-09 06:05:24
    Программа кодирования : mkvmerge v6.9.1 (\'Blue Panther\') 64bit built on Apr 18 2014 18:23:38
    Библиотека кодирования : libebml v1.3.0 + libmatroska v1.4.1
    Видео
    Идентификатор : 1
    Формат : AVC
    Формат/Информация : Advanced Video Codec
    Профиль формата :High@L4.0
    Параметр CABAC формата : Да
    Параметр ReFrames формата : 2 кадра
    Идентификатор кодека : V_MPEG4/ISO/AVC
    Битрейт : 4551 Кбит/сек
    Номинальный битрейт : 6000 Кбит/сек
    Ширина : 1920 пикселей
    Высота : 1080 пикселей
    Соотношение сторон : 16:9
    Режим частоты кадров : Переменный
    Частота кадров в оригинале : 30, 000 кадров/сек
    Цветовое пространство : YUV
    Субдискретизация насыщенности : 4:2:0
    Битовая глубина : 8 бит
    Тип развёртки : Прогрессивная
    Бит/(Пиксели*Кадры) : 0.096
    Библиотека кодирования : x264 core 115 r1995M 5a37283
    Настройки программы : cabac=1/ref=2/deblock=1:0:0/analyse=0x3:0x113/me=hex/subme=2/psy=1/psy_rd=1.00:0.00/mixed_ref=0/me_range=16/chroma_me=1/trellis=0/8x8dct=1/cqm=0/deadzone=21, 11/fast_pskip=1/chroma_qp_offset=0/threads=1/sliced_threads=0/nr=250/decimate=1/interlaced=0/bluray_compat=0/constrained_intra=0/bframes=0/weightp=1/keyint=250/keyint_min=25/scenecut=40/intra_refresh=0/rc_lookahead=10/rc=2pass/mbtree=1/bitrate=6000/ratetol=1.0/qcomp=0.60/qpmin=5/qpmax=69/qpstep=4/cplxblur=20.0/qblur=0.5/ip_ratio=1.40/aq=1:1.00
    Язык : English
    Default : Да
    Forced : Нет
    Аудио #1
    Идентификатор : 2
    Формат : AC-3
    Формат/Информация : Audio Coding 3
    Расширение режима : CM (complete main)
    Параметр Endianness формата : Big
    Идентификатор кодека : A_AC3
    Продолжительность : 54 м.
    Вид битрейта : Постоянный
    Битрейт : 192 Кбит/сек
    Каналы : 2 канала
    Расположение каналов : Front: L R
    Частота : 48, 0 КГц
    Битовая глубина : 16 бит
    Метод сжатия : С потерями
    Размер потока : 74, 4 Мбайт (4%)
    Язык : Russian
    Default : Да
    Forced : Нет
    Аудио #2
    Идентификатор : 3
    Формат : AC-3
    Формат/Информация : Audio Coding 3
    Расширение режима : CM (complete main)
    Параметр Endianness формата : Big
    Идентификатор кодека : A_AC3
    Продолжительность : 54 м.
    Вид битрейта : Постоянный
    Битрейт : 192 Кбит/сек
    Каналы : 2 канала
    Расположение каналов : Front: L R
    Частота : 48, 0 КГц
    Битовая глубина : 16 бит
    Метод сжатия : С потерями
    Размер потока : 74, 4 Мбайт (4%)
    Язык : English
    Default : Нет
    Forced : Нет


    Скриншоты для ознакомления




    Онлайн видео СтартАп



    СтартАп/StartUp (2016) WEB-DL [H.264/1080p-LQ] (сезон 1, серии 1-2 из 10) NewStudio (обновляемая)
    загрузка...
    Рейтинг →
     (голосов: 1, оценка 4/5, голосовать можно 1 раз )

    Другие торренты по теме:

  • СтартАп / StartUp (2016) HDTVRip (сезон 1, серии 1-10 из 10) Victory-Films
  • Стартап / StartUp (2016) WEB-DLRip (сезон 1, серии 1-10 из 10) NewStudio
  • Стартап / StartUp (2016) WEB-DL [H.265 / 1080p-LQ] (сезон 1, серии 1-10 из 10) [En / En sub]


    • Комментарии (0):

      Информация

      Информация

        Посетители, находящиеся в группе Гости, не могут оставлять комментарии в данной новости.

        ↓ Меню




        ↓ Опрос

        Вы добавили сайт в закладки?
        Да
        Нет


        Top 10 за месяц (Фильмы)