.
Авторизация | Регистрация
Хочешь лучшие торренты? Добавь свой email!
Добавить

Торрент скачать бесплатно

» » Доктор Ноу / Dr. No (1962) BDRip [H.265 / 1080p-LQ] торрент скачать бесплатно




    Доктор Ноу / Dr. No (1962) BDRip [H.265 / 1080p-LQ] торрент скачать бесплатно

    Опубликовал: Админ | Дата: 9-09-2016, 04:01 | Просмотров: 26

    Производство: Великобритания/Eon Productions Ltd.
    Жанр: Боевик, Приключения, Триллер
    Режиссер: Теренс Янг

    Актеры
    Шон Коннери, Урсула Андресс, Джозеф Уайзмен, Джек Лорд, Бернард Ли, Энтони Доусон, Зена Маршалл, Джон Кицмиллер, Юнис Гейсон, Лоис Максуэлл

    Описание

    Бонду дано задание выяснить что является источником электронных помех в компьютерах американских пусковых шахт на мысе Канаверал. По агентурным данным мозговой центр вражеских сил находится на Ямайке. Бонд незамедлительно выдвигается туда.
    В процессе расследования ему придется столкнуться с могущественной структурой СПЕКТР и ее представителем Доктором Ноу, готовым пойти на все, лишь бы держать весь мир в своих металлических руках. И только Бонд и его верный Валльтер ППК могут остановить злые силы на знойном океанском побережье.

    Релиз от: PirateMKV
    Продолжительность: 01: 49: 50
    Качество видео: BDRip-LQ
    Перевод: Дублированный
    Язык субтитров: Русский
    Вид субтитров: Вшитые (отключаемые)
    Видео: HEVC/H.265, 1800x1080, ~5962 Kbps
    Аудио: AC3, 6 ch, 384 kbps, CBR
    Код:

    Общее
    Уникальный идентификатор : 251770477338271382463774579187833875707 (0xBD693AEA936F7EAEA0E7EE0DCCDBACFB)
    Полное имя : E:VideoДжеймс Бонд. Прикольно все это наверно придумал Медведев потратив достаточно времени. Агент 007Доктор Ноу (Dr No).mkv
    Формат : Matroska
    Версия формата : Version 4/Version 2
    Размер файла : 4, 87 Гбайт
    Продолжительность : 1 ч. 49 м.
    Общий поток : 6348 Кбит/сек
    Название фильма : Доктор Ноу/Dr. No
    Дата кодирования : UTC 2016-09-07 12:39:33
    Программа кодирования : mkvmerge v9.0.1 (\'Obstacles\') 64bit
    Библиотека кодирования : libebml v1.3.3 + libmatroska v1.4.4
    Attachments : Доктор Ноу-12.jpg
    Видео
    Идентификатор : 1
    Формат : HEVC
    Формат/Информация : High Efficiency Video Coding
    Идентификатор кодека : V_MPEGH/ISO/HEVC
    Продолжительность : 1 ч. 49 м.
    Битрейт : 5962 Кбит/сек
    Ширина : 1800 пикселей
    Высота : 1080 пикселей
    Соотношение сторон : 5:3
    Режим частоты кадров : Постоянный
    Частота кадров : 23, 976 (24000/1001) кадра/сек
    Бит/(Пиксели*Кадры) : 0.128
    Размер потока : 4, 57 Гбайт (94%)
    Заголовок : Video H.265 (Encoded by PirateMKV)
    Default : Да
    Forced : Нет
    Аудио
    Идентификатор : 2
    Формат : AC-3
    Формат/Информация : Audio Coding 3
    Расширение режима : CM (complete main)
    Параметр Endianness формата : Big
    Идентификатор кодека : A_AC3
    Продолжительность : 1 ч. 49 м.
    Вид битрейта : Постоянный
    Битрейт : 384 Кбит/сек
    Каналы : 6 каналов
    Расположение каналов : Front: L C R, Side: L R, LFE
    Частота : 48, 0 КГц
    Частота кадров : 31, 250 кадров/сек (1536 spf)
    Метод сжатия : С потерями
    Размер потока : 302 Мбайт (6%)
    Заголовок : Перевод: Профессиональный (полное дублирование)
    Язык : Russian
    Default : Да
    Forced : Нет
    Текст
    Идентификатор : 3
    Формат : UTF-8
    Идентификатор кодека : S_TEXT/UTF8
    Идентификатор кодека/Информация : UTF-8 Plain Text
    Продолжительность : 1 ч. 48 м.
    Битрейт : 74 бит/сек
    Count of elements : 901
    Размер потока : 59, 3 Кбайт (0%)
    Язык : Russian
    Default : Да
    Forced : Нет
    Меню
    00:00:00.000 : en:Logos/Main Title
    00:02:50.670 : en:Three Blind Killers
    00:06:33.684 : en:Le Cercle of Cards
    00:09:41.914 : en:Assignments Guns
    00:16:26.860 : en:Sexy Golf
    00:19:00.848 : en:A Very Bad Driver
    00:22:06.491 : en:The Dead Man\'s Place
    00:24:32.471 : en:Taking Precautions
    00:26:43.602 : en:Finding a Quarrel
    00:28:28.123 : en:Spy Meets Spy
    00:31:22.255 : en:No Pix, Please
    00:36:07.582 : en:Ungenuine Geologist
    00:37:39.256 : en:I Don\'t Like Failure
    00:41:18.058 : en:Along Came a Spider
    00:44:38.217 : en:Oops! Missing Files
    00:46:44.676 : en:Radioactive Samples
    00:48:18.895 : en:Road Runner
    00:51:24.247 : en:Stalling a Spy
    00:55:28.575 : en:Set Up, Wait Shoot
    00:58:50.109 : en:Shell-Shocked
    01:01:57.338 : en:Wading Into Trouble
    01:08:08.125 : en:Diesel Dragon
    01:12:39.855 : en:Decontamination Bath
    01:15:17.930 : en:A Luxurious Prison
    01:18:04.304 : en:Minnows Like Whales?
    01:20:54.432 : en:Dinner with the Dr.
    01:26:28.600 : en:Tunnel of Trouble
    01:34:00.760 : en:That Suit Suits Me
    01:39:03.270 : en:Danger Level High
    01:43:05.429 : en:Look, No Hands!
    01:45:19.021 : en:Honey! Abandon Ship!
    01:47:30.193 : en:Happily Lost at Sea
    XMP
    Xmp.video.FileName : E:VideoДжеймс Бонд. Агент 007Доктор Ноу (Dr No).mkv
    Xmp.video.FileSize : -9.53674e-007
    Xmp.video.MimeType : video/matroska
    Xmp.video.EBMLVersion : 1
    Xmp.video.EBMLReadVersion : 1
    Xmp.video.DocType : matroska
    Xmp.video.DocTypeVersion : 4
    Xmp.video.DocTypeReadVersion : 2
    Xmp.video.TimecodeScale : 0.001
    Xmp.video.MuxingApp : libebml v1.3.3 + libmatroska v1.4.4
    Xmp.video.WritingApp : mkvmerge v9.0.1 (\'Obstacles\') 64bit
    Xmp.video.Duration : 6590459
    Xmp.video.DateUTC : 494944773
    Xmp.video.Title : Доктор Ноу/Dr. No
    Xmp.video.TotalStream : 3
    Xmp.video.TrackLacing : No
    Xmp.video.Codec : V_MPEGH/ISO/HEVC
    Xmp.video.FrameRate : 23.976
    Xmp.video.TrackLang : und
    Xmp.video.TrackName : Перевод: ПрофессионаРьный (РїРѕРРЅРѕРµ РґСѓР±Рирование)
    Xmp.video.Width : 1800
    Xmp.video.Height : 1080
    Xmp.audio.Compressor : A_AC3
    Xmp.audio.DefaultDuration : 32000
    Xmp.audio.TrackLang : rus
    Xmp.audio.SampleRate : 48000
    Xmp.video.SubTTrackLacing : No
    Xmp.video.SubTCodec : S_TEXT/UTF8
    Xmp.video.SubTLang : rus
    Xmp.video.AttachFileName : Доктор Ноу-12.jpg
    Xmp.video.AttachFileMIME : image/jpeg
    Xmp.video.AttachFileUID : 3259497178925075641
    Xmp.video.AttachFileDesc : BD Cover
    Xmp.video.AspectRatio : 16:10


    Скриншоты для ознакомления




    Онлайн видео Доктор Ноу



    Доктор Ноу/Dr. No (1962) BDRip [H.265/1080p-LQ]
    загрузка...
    Рейтинг →
     (голосов: 1, оценка 4/5, голосовать можно 1 раз )

    Другие торренты по теме:

  • Доктор Стрэндж / Doctor Strange (2016) BDRip BDRip 3D [H.264 / 1080p] [Горизонтальная анаморфная стереопара]
  • Доктор Кто / Doctor Who (2014) BDRip [H.264 / 1080р-LQ] (сезон 8, серии 0 - 13 из 13) (BaibaKo) скачать через торрент бесплатно
  • Доктор Хаус / House M.D. (2004) BDRip [H.264 / 1080p-LQ] (сезон 1, серии 1-22 из 22) (LostFilm) скачать через торрент бесплатно
  • Доктор Хаус / House M.D. (2005) BDRip [H.264 / 1080p-LQ] (сезон 2, серии 1-24 из 24) (LostFilm) скачать через торрент бесплатно
  • Доктор Хаус / House M.D. (2006) BDRip [H.264 / 1080p-LQ] (сезон 3, серии 1-24 из 24) (LostFilm) скачать через торрент бесплатно
  • Доктор Хаус / House M.D. (2007) BDRip [H.264 / 1080p-LQ] (сезон 4, серии 1-16 из 16) (LostFilm) скачать через торрент бесплатно
  • Доктор Хаус / House M.D. (2008) BDRip [H.264 / 1080p-LQ] (сезон 5, серии 1-24 из 24) (LostFilm) скачать через торрент бесплатно
  • Доктор Хаус / House M.D. (2009) BDRip [H.264 / 1080p-LQ] (сезон 6, серии 1-21 из 21) (LostFilm) скачать через торрент бесплатно


    • Комментарии (0):

      Информация

      Информация

        Посетители, находящиеся в группе Гости, не могут оставлять комментарии в данной новости.

        ↓ Меню




        ↓ Опрос

        Вы добавили сайт в закладки?
        Да
        Нет


        Top 10 за месяц (Фильмы)