.
Авторизация | Регистрация
Хочешь лучшие торренты? Добавь свой email!
Добавить

Торрент скачать бесплатно

» » Голдфингер / Goldfinger (1964) BDRip [H.265 / 1080p] торрент скачать бесплатно




    Голдфингер / Goldfinger (1964) BDRip [H.265 / 1080p] торрент скачать бесплатно

    Опубликовал: Админ | Дата: 8-09-2016, 04:01 | Просмотров: 15

    Производство: Производство: Великобритания/Eon Productions Ltd.
    Жанр: Боевик, Приключения, Триллер
    Режиссер: Гай Хэмилтон

    Актеры
    Шон Коннери, Онор Блэкман, Герт Фрёбе, Ширли Итон, Таня Маллет, Гарольд Саката, Бернард Ли, Цец Линдер, Лоис Максвелл, Десмонд Ллевелин, Боб Симмонс, Лес Треймен, Мартин Бенсон, Остин Уиллис, Надя Реджин, Майкл Меллингер

    Описание

    На этот раз Джеймс Бонд борется со злом в лице международного преступника Голдфингера. Негодяй планирует уничтожить золотой запас США, и таким образом ввергнуть в пучину хаоса все капиталистическое общество.
    Помешать этим дерзким планам может только один человек. При помощи нескольких прекрасных женщин и множества хитроумных приспособлений агент 007 обезвреживает злодея и ликвидирует угрозу банкротства целого государства.

    Релиз от: PirateMKV
    Продолжительность: 01: 50: 01
    Качество видео: BDRip
    Перевод: Многоголосый закадровый
    Язык субтитров: Русский
    Вид субтитров: Вшитые (отключаемые)
    Видео: HEVC/H.265, 1810x1080, ~10, 5 Mbps
    Аудио: AC3, 6 ch, 640 Kbps, CBR
    Код:

    Общее
    Уникальный идентификатор : 224265448069676718946323829643579002086 (0xA8B7F445FC12680498C17760F98C8CE6)
    Полное имя : E:VideoДжеймс Бонд. Агент 007Голдфингер (Goldfinger).mkv
    Формат : Matroska
    Версия формата : Version 4/Version 2
    Размер файла : 8, 53 Гбайт
    Продолжительность : 1 ч. 50 м.
    Общий поток : 11, 1 Мбит/сек
    Название фильма : Голдфингер/Goldfinger
    Дата кодирования : UTC 2016-09-05 07:45:37
    Программа кодирования : mkvmerge v9.0.1 (\'Obstacles\') 64bit
    Библиотека кодирования : libebml v1.3.3 + libmatroska v1.4.4
    Attachments : fb73734fd5_500.jpg
    Видео
    Идентификатор : 1
    Формат : HEVC
    Формат/Информация : High Efficiency Video Coding
    Профиль формата : Main@L5@Main
    Идентификатор кодека : V_MPEGH/ISO/HEVC
    Продолжительность : 1 ч. О таком странном сюжете не догадывалась даже Шакира. 50 м.
    Битрейт : 10, 5 Мбит/сек
    Ширина : 1810 пикселей
    Высота : 1080 пикселей
    Соотношение сторон : 5:3
    Соотношение сторон в оригинале : 3, 352
    Режим частоты кадров : Постоянный
    Частота кадров : 23, 976 (24000/1001) кадра/сек
    Цветовое пространство : YUV
    Субдискретизация насыщенности : 4:2:0
    Битовая глубина : 8 бит
    Бит/(Пиксели*Кадры) : 0.223
    Размер потока : 8, 04 Гбайт (94%)
    Заголовок : Agente 007: Goldfinger (1964) - PirateMKV
    Библиотека кодирования : x265 1.7:[Windows][GCC 4.9.2][64 bit]
    Настройки программы : wpp/ctu=64/min-cu-size=8/max-tu-size=32/tu-intra-depth=3/tu-inter-depth=3/me=2/subme=4/merange=57/no-rect/no-amp/max-merge=3/temporal-mvp/early-skip/rdpenalty=0/no-tskip/no-tskip-fast/strong-intra-smoothing/no-lossless/no-cu-lossless/no-constrained-intra/fast-intra/open-gop/no-temporal-layers/interlace=0/keyint=250/min-keyint=23/scenecut=40/rc-lookahead=40/lookahead-slices=0/bframes=8/bframe-bias=0/b-adapt=2/ref=5/weightp/weightb/aq-mode=1/aq-strength=2.00/cbqpoffs=0/crqpoffs=0/rd=4/psy-rd=1.00/rdoq-level=0/psy-rdoq=0.00/signhide/deblock=-1:-1/sao/sao-non-deblock/b-pyramid/no-cutree/rc=crf/crf=20.0/qcomp=0.60/qpmin=0/qpmax=51/qpstep=4/ipratio=1.40/pbratio=1.30
    Язык : English
    Default : Да
    Forced : Нет
    Аудио
    Идентификатор : 2
    Формат : AC-3
    Формат/Информация : Audio Coding 3
    Расширение режима : CM (complete main)
    Параметр Endianness формата : Big
    Идентификатор кодека : A_AC3
    Продолжительность : 1 ч. 50 м.
    Вид битрейта : Постоянный
    Битрейт : 640 Кбит/сек
    Каналы : 6 каналов
    Расположение каналов : Front: L C R, Side: L R, LFE
    Частота : 48, 0 КГц
    Частота кадров : 31, 250 кадров/сек (1536 spf)
    Метод сжатия : С потерями
    Размер потока : 504 Мбайт (6%)
    Язык : Russian
    Default : Да
    Forced : Нет
    Текст
    Идентификатор : 3
    Формат : UTF-8
    Идентификатор кодека : S_TEXT/UTF8
    Идентификатор кодека/Информация : UTF-8 Plain Text
    Продолжительность : 1 ч. 45 м.
    Битрейт : 54 бит/сек
    Count of elements : 633
    Размер потока : 42, 3 Кбайт (0%)
    Язык : Russian
    Default : Да
    Forced : Нет
    Меню
    00:00:00.000 : en:The Secret Lab
    00:03:19.199 : en:Unfinished Business
    00:05:02.677 : en:Opening Titles
    00:07:49.218 : en:Welcome to Miami Beach
    00:08:53.115 : en:Felix
    00:09:56.596 : en:Goldfinger\'s Cards
    00:11:34.735 : en:His Talent Exposed
    00:15:55.079 : en:Enter Oddjob and the Golden Girl
    00:17:56.950 : en:James\'s Breifing
    00:22:39.107 : en:Q the New Toys
    00:25:18.558 : en:Golf and Gold
    00:31:25.633 : en:Phantom 337
    00:33:37.223 : en:A Visit to Geneva
    00:36:41.365 : en:A Drive in the Country
    00:40:41.522 : en:Smuggling Is an Art
    00:42:59.660 : en:Night Chase
    00:47:48.574 : en:Escape Attempt
    00:50:11.800 : en:No, Mr. Bond, I Expect You to Die.
    00:54:09.120 : en:Goldfinger\'s Jet
    00:56:34.182 : en:Activating the Homing Shoe
    01:00:12.567 : en:Pussy Galore\'s Flying Circus
    01:02:56.272 : en:Arriving at the Ranch
    01:04:45.214 : en:Banks Don\'t Open on Sunday.
    01:06:47.253 : en:Knock Off Ft. Knox
    01:09:50.269 : en:James Overhears the Plan
    01:13:04.755 : en:Gassing the Investors
    01:14:44.938 : en:A Pressing Engagement
    01:20:40.836 : en:Operation Grandstand Revealed
    01:25:01.137 : en:Completely Defenseless
    01:27:53.851 : en:Fort Knox Takes a Nap
    01:38:00.583 : en:Showdown with Oddjob
    01:45:29.531 : en:Credits
    XMP
    Xmp.video.FileName : E:VideoДжеймс Бонд. Агент 007Голдфингер (Goldfinger).mkv
    Xmp.video.FileSize : -9.53674e-007
    Xmp.video.MimeType : video/matroska
    Xmp.video.EBMLVersion : 1
    Xmp.video.EBMLReadVersion : 1
    Xmp.video.DocType : matroska
    Xmp.video.DocTypeVersion : 4
    Xmp.video.DocTypeReadVersion : 2
    Xmp.video.TimecodeScale : 0.001
    Xmp.video.MuxingApp : libebml v1.3.3 + libmatroska v1.4.4
    Xmp.video.WritingApp : mkvmerge v9.0.1 (\'Obstacles\') 64bit
    Xmp.video.Duration : 6601216
    Xmp.video.DateUTC : 494754337
    Xmp.video.Title : ГоРдфингер/Goldfinger
    Xmp.video.TotalStream : 21
    Xmp.video.TrackLacing : No
    Xmp.video.Codec : V_MPEGH/ISO/HEVC
    Xmp.video.FrameRate : 23.976
    Xmp.video.TrackName : Agente 007: Goldfinger (1964) - PirateMKV
    Xmp.video.Width : 1810
    Xmp.video.Height : 1080
    Xmp.audio.Compressor : A_AC3
    Xmp.audio.DefaultDuration : 32000
    Xmp.audio.TrackLang : rus
    Xmp.audio.SampleRate : 48000
    Xmp.video.SubTTrackLacing : No
    Xmp.video.SubTCodec : S_TEXT/UTF8
    Xmp.video.SubTLang : rus
    Xmp.video.AttachFileName : fb73734fd5_500.jpg
    Xmp.video.AttachFileMIME : image/jpeg
    Xmp.video.AttachFileUID : -4072173113397196906
    Xmp.video.AttachFileDesc : Cover
    Xmp.video.AspectRatio : 16:10


    Скриншоты для ознакомления




    Онлайн видео Голдфингер



    Голдфингер/Goldfinger (1964) BDRip [H.265/1080p]
    загрузка...
    Рейтинг →
     (голосов: 1, оценка 4/5, голосовать можно 1 раз )

    Другие торренты по теме:

  • Голдфингер / Goldfinger (1964) BDRip [H.264] скачать через торрент бесплатно


    • Комментарии (0):

      Информация

      Информация

        Посетители, находящиеся в группе Гости, не могут оставлять комментарии в данной новости.

        ↓ Меню




        ↓ Опрос

        Вы добавили сайт в закладки?
        Да
        Нет


        Top 10 за месяц (Фильмы)