.
Авторизация | Регистрация
Хочешь лучшие торренты? Добавь свой email!
Добавить

Торрент скачать бесплатно

» » От заката до рассвета / From Dusk Till Dawn (2016) WEB-DLRip (сезон 3, серии 1 из 10) LostFilm (обновляемая) торрент скачать бесплатно




    От заката до рассвета / From Dusk Till Dawn (2016) WEB-DLRip (сезон 3, серии 1 из 10) LostFilm (обновляемая) торрент скачать бесплатно

    Опубликовал: Админ | Дата: 8-09-2016, 04:01 | Просмотров: 130

    Производство: США
    Жанр: боевик, ужасы, криминал, фэнтези
    Режиссер: Роберт Родригес, Джо Менендес, Дуайт Х. Литтл

    Актеры
    Ди Джей Котрона, Зейн Холц, Джесси Гарсиа, Эйса Гонсалес, Уилмер Вальдеррама, Эдрианн Палики, Джейк Бьюзи, Дон Джонсон, Мэдисон Девенпорт, Лэйн Гаррисон, Роберт Патрик, Брэндон Су Ху и др.

    Описание

    Сет Гекко, грабитель банков, и его не совсем психически стабильный братец Ричард находятся в розыске. Разыскивают их не только ФБР, но и техасские законники — шериф МакГроу и рейнджер Гонсалес, которые утраивают усилия после того, как после очередного ограбления, устроенного братьями Гекко, в банке остается несколько трупов. Пытаясь удрать в Мексику, Гекко сталкиваются с бывшим священником Джейкобом Фуллером и его семьей, которых берут в заложники и в их же трейлере отправляются к мексиканской границе. Заехав в небольшой стрип-клуб по дороге, они неудачно знакомятся с целой прорвой жаждущих крови вампиров и пытаются хотя бы дожить до рассвета, не говоря уже о том, чтобы истребить как можно больше чудовищ.

    Возраст: 16+ (зрителям, достигшим 16 лет)
    Продолжительность: ~00: 43: 00 серия
    Качество видео: WEB-DLRip
    Перевод: Многоголосый закадровый, профессиональный | LostFilm
    Реклама: присутствуют заставка и логотип LostFilm.
    Видео: Xvid, 720x400 (16: 9), ~1157 kbps
    Аудио: MP3, 2 ch, 192 kbps, 48, 0 kHz — многоголосый закадровый
    Код:

    Общее
    Полное имя : E:_Сериалы_СериалыОт заката до рассветаFrom.Dusk.Till.Dawn.S03.rus.LostFilmFrom.Dusk.Till.Dawn.S03E01.rus.LostFilm.TV.avi
    Формат : AVI
    Формат/Информация : Audio Video Interleave
    Размер файла : 406 Мбайт
    Продолжительность : 41 м. 48 с.
    Режим общего битрейта : Переменный
    Общий поток : 1359 Кбит/сек
    Программа кодирования : Nandub v1.0rc2
    Библиотека кодирования : Nandub build 1853/release
    Видео
    Идентификатор : 0
    Формат : MPEG-4 Visual
    Профиль формата : Advanced Simple@L5
    Параметр BVOP формата : Нет
    Параметр QPel формата : Нет
    Параметр GMC формата : Без точки перехода
    Параметр матрицы формата : Default (H.263)
    Идентификатор кодека : XVID
    Идентификатор кодека/Подсказка : XviD
    Продолжительность : 41 м. 48 с.
    Битрейт : 1157 Кбит/сек
    Ширина : 720 пикселей
    Высота : 400 пикселей
    Соотношение сторон : 16:9
    Частота кадров : 23, 976 (23976/1000) кадра/сек
    Цветовое пространство : YUV
    Субдискретизация насыщенности : 4:2:0
    Битовая глубина : 8 бит
    Тип развёртки : Прогрессивная
    Метод сжатия : С потерями
    Бит/(Пиксели*Кадры) : 0.168
    Размер потока : 346 Мбайт (85%)
    Библиотека кодирования : XviD 1.2.1 (UTC 2008-12-04)
    Аудио
    Идентификатор : 1
    Формат : MPEG Audio
    Версия формата : Version 1
    Профиль формата : Layer 3
    Режим : Joint stereo
    Расширение режима : MS Stereo
    Идентификатор кодека : 55
    Идентификатор кодека/Подсказка : MP3
    Продолжительность : 41 м. 48 с.
    Вид битрейта : Переменный
    Битрейт : 192 Кбит/сек
    Каналы : 2 канала
    Частота : 48, 0 КГц
    Метод сжатия : С потерями
    Размер потока : 56, 4 Мбайт (14%)
    Выравнивание : Соединение по промежуткам
    Продолжительность промежутка : 24 мс. (0, 58 видеокадр)
    Время предзагрузки промежутка : 439 мс.
    Библиотека кодирования : LAME3.97b
    Настройки программы : -m j -V 4 -q 3 -lowpass 18.6 --abr 192


    Скриншоты для ознакомления




    Онлайн видео От заката до рассвета



    От заката до рассвета/From Dusk Till Dawn (2016) WEB-DLRip (сезон 3, серии 1 из 10) LostFilm (обновляемая)
    загрузка...
    Рейтинг →
     (голосов: 1, оценка 5/5, голосовать можно 1 раз )

    Другие торренты по теме:

  • Александр Заморин | От заката до рассвета (2014) PCRec скачать через торрент бесплатно
  • Александр Шапиро - От рассвета до заката (2009) [FLAC|image +.cue]<Шансон> скачать через торрент бесплатно
  • От заката до рассвета / From Dusk Till Dawn (1996) BDRip [H.264 / 1080p] скачать через торрент бесплатно
  • От заката до рассвета / From Dusk Till Dawn: The Series (2015) WEB-DLRip (сезон 2, серии 1 из 10) NewStudio (обновляемая) скачать через торрент бесплатно
  • От заката до рассвета / From Dusk Till Dawn: The Series (2015) WEB-DL [H.264 / 1080p-LQ] (сезон 2, серии 1 из 10) LostFilm, NewStudio, Alternative Production (обновляемая) скачать через торрент бесплатно
  • От заката до рассвета / From Dusk Till Dawn: The Series (2015) WEB-DL [H.264 / 720p-LQ] (сезон 2, серия 1 из 10) (NewStudio) (обновляемая) скачать через торрент бесплатно
  • От заката до рассвета / From Dusk Till Dawn: The Series (2015) WEB-DLRip (сезон 2, серии 1 из 10) LostFilm (обновляемая) скачать через торрент бесплатно
  • Ласковый май: от заката до рассвета (2016) SATRip


    • Комментарии (0):

      Информация

      Информация

        Посетители, находящиеся в группе Гости, не могут оставлять комментарии в данной новости.

        ↓ Меню




        ↓ Опрос

        Вы добавили сайт в закладки?
        Да
        Нет


        Top 10 за месяц (Фильмы)